Чемпионат Англии 2010-11 / 38-й тур / Обзор матчей / Спорт 1 [24.05.2011, SD, XviD, RU, SAT]

Ответить на тему

Автор Сообщение

fuххer666


Стаж: 6 лет

Сообщений: 14711

Уганда

Торрент-статистика

post 24-Май-2011 11:42

Quote


Чемпионат Англии 2010-11 / 38-й тур / Обзор матчей / Спорт 1


Год выпуска: 2011
Вид спорта: Футбол
Участники: Команды АПЛ
Продолжительность: 00:51:20
Комментарий: Профессиональный (одноголосый)
Язык комментариев: русский

Чемпионат Англии 2010-11 / 38-й тур / Обзор матчей / Спорт 1

Качество: SATRip
Формат: AVI
Видео кодек: XviD
Аудио кодек: MP3
Видео: 704 x 400 (1.778) at 25.000 fps, 1,7 Мбит/сек
Аудио: 48000Hz stereo 128Кбит/сек

Релиз от:

_________________
Нужны любые матчи любых чемпионатов - пишите в ЛС. По поводу VIP - тоже в ЛС
Profile PM

horse


Стаж: 6 лет

Сообщений: 166

Откуда: Москва

Россия

Торрент-статистика

post 24-Май-2011 12:05 (спустя 23 минуты)

Quote


fuxxer666
Кто комментатор?
Profile PM

demon28


Стаж: 5 лет 11 месяцев

Сообщений: 233

Откуда: Сыктывкар

Россия

Торрент-статистика

post 24-Май-2011 12:18 (спустя 12 минут)

Quote


Спасибо, наконец-то!! Качаю.
Profile PM

Tujh95_MU


Стаж: 6 лет

Сообщений: 495

Откуда: Омск

Россия

Торрент-статистика

post 24-Май-2011 12:34 (спустя 16 минут)

Quote


fuxxer666
Спасибо)

Итоговую программу ВГТРК не планируют?

_________________
Profile PM

Kostya__2009


Стаж: 6 лет

Сообщений: 361

Откуда: Новороссийск

Россия

Торрент-статистика

post 24-Май-2011 13:04 (спустя 29 минут)

Quote


Спасибо ! Жду в 1080р ad

_________________
Profile PM

sonic


Стаж: 6 лет

Сообщений: 188

Великобритания

Торрент-статистика

post 24-Май-2011 13:30 (спустя 25 минут)

Quote


Tujh95_MU
Запланировали уже! Ролан Гаррос называется! Из-за этого мероприятия приходиться ждать остальные матчи 38-го тура АПЛ аж до среды ac А если серьезно, с**ть они хотели на АПЛ! Ты разве по походу сезона не заметил? Это тот самый случай когда: "ни себе, ни людям!" Сами подошли как любители к трансляциям, и ПЛЮСУ не дали отработать как нада! aq
Profile PM

RaiN989


Стаж: 5 лет 7 месяцев

Сообщений: 3

Гуам

Торрент-статистика

post 24-Май-2011 14:03 (спустя 33 минуты)

Quote


horse писал(а):

fuxxer666
Кто комментатор?
Цибулин будь он не ладен! aq
Profile PM

sonic


Стаж: 6 лет

Сообщений: 188

Великобритания

Торрент-статистика

post 24-Май-2011 16:37 (спустя 2 часа 33 минуты)

Quote


fuxxer666
Что то ты начудил с рипом в этот раз ab
MediaInfo:
Видео
Идентификатор : 0
Формат : MPEG-4 Visual
Профиль формата : Advanced Simple@L5
Параметр BVOP формата : 1
Параметр QPel формата : Нет
Параметр GMC формата : Без точки перехода
Параметр матрицы формата : Выборочная
Идентификатор кодека : XVID
Идентификатор кодека/Подсказка : XviD
Продолжительность : 51 м.
Битрейт : 1793 Кбит/сек
Ширина : 704 пикс.
Высота : 416 пикс.
Соотношение сторон : 1,692
Частота кадров : 25,000 кадр/сек
Цветовое пространство : YUV
Подвыборка цветности : 4:2:0
Битовая глубина : 8 бит
Тип развёртки : Прогрессивная
Метод сжатия : С потерями
Бит/(Пиксели*Кадры) : 0.245
Размер потока : 654 Мбайт (94%)
Библиотека кодирования : XviD 1.2.1 (UTC 2008-12-04)

Аудио
Идентификатор : 1
Формат : MPEG Audio
Версия формата : Version 1
Профиль формата : Layer 3
Режим : Joint stereo
Расширение режима : MS Stereo
Идентификатор кодека : 55
Идентификатор кодека/Подсказка : MP3
Продолжительность : 51 м.
Вид битрейта : Переменный
Битрейт : 105 Кбит/сек
Номинальный битрейт : 128 Кбит/сек
Каналы : 2 канала
Частота : 48,0 КГц
Метод сжатия : С потерями
Размер потока : 38,4 Мбайт (6%)
Выравнивание : Соединение по промежуткам
Продолжительность промежутка : 24 мс. (0,60 видеокадр)
Время предзагрузки промежутка : 522 ms
Библиотека кодирования : LAME3.98r
Настройки программы : -m j -V 4 -q 2 -lowpass 17 --abr 128
Profile PM

Tujh95_MU


Стаж: 6 лет

Сообщений: 495

Откуда: Омск

Россия

Торрент-статистика

post 24-Май-2011 16:48 (спустя 11 минут)

Quote


sonic
Ясно. Так и думал, всё ясно с ними...

Может будет что-то подобное по другим иноязычным каналам? Очень хочется какой-нибудь итоговый обзор сезона АПЛ с топами голов и т.д. для коллекции, а то предыдущие сезоны то есть...

_________________
Profile PM

voventus35


Стаж: 6 лет

Сообщений: 329

Россия

Торрент-статистика

post 25-Май-2011 03:48 (спустя 10 часов)

Quote


Спасибо!
Profile PM

telet8


Стаж: 5 лет 8 месяцев

Сообщений: 16

Торрент-статистика

post 27-Май-2011 09:00 (спустя 2 дня 5 часов)

Quote


Качество конечно не супер.... at

_________________
Profile PM
Ответить на тему