Liverpool - Season review 2013-14 / Ливерпуль - Обзор сезона 2013-14 [2014., HD, H264, 720p, EN, HDTV]

Ответить на тему

Автор Сообщение

Chameleon


Стаж: 6 лет

Сообщений: 3696

Откуда: Tyumen

Россия

Торрент-статистика

post 29-Фев-2016 11:37

Quote




Liverpool - Season review 2013-14 / Ливерпуль - Обзор сезона 2013-14

Страна: Англия.
Турниры: Чемпионат Англии 2013-14. Кубок Англии 2013-14. Кубок Английской лиги 2013-14.
Год выпуска: 2014
Язык комментариев: Английский ()
Продолжительность: ***
Формат видео: MP4
Видео кодек, разрешение, ...: H264, 1280x716, ~3 800 kbps, 25 fps
Аудио кодек, ...: AAC, 128 kbps, 2 ch, 44,1 kHz

01:54:58

Код:

Format                      : MPEG-4
Format profile              : Base Media
Codec ID                    : isom
File size                   : 3.13 GiB
Duration                    : 1h 54mn
Overall bit rate mode       : Variable
Overall bit rate            : 3 892 Kbps
Collection                  : Liverpool FC
Album                       : Liverpool FC
Album/Performer             : Liverpool FC
Track name                  : Liverpool FC Season Review 2013 / 14
Track name/Position         : 1
Performer                   : Liverpool FC
Genre                       : Video
Description                 : The full story of Liverpool FC's thrilling and incredible campaign to win their first Premier League
Recorded date               : UTC 2014-06-02 07:00:00
Writing application         : Lavf54.63.104
Copyright                   : © 2014 PDI Media, 2 Entertain Video Ltd.
LongDescription             : The full story of Liverpool FC's thrilling and incredible campaign to win their first Premier League title, and be crowned the champions of English football for the nineteenth time. The mighty Reds have become the great entertainers powered by the goals of dynamic duo Luis Suarez and Daniel Sturridge, and driven on by their inspirational skipper Steven Gerrard. Including the triumphant double over fierce rivals Manchester United, and comprehensive, stunning victories over Everton and Arsenal. Featuring all the goals, all the games and exclusive interviews with the manager and star players.
Part_ID                     : 1

Video
ID                          : 1
Format                      : AVC
Format/Info                 : Advanced Video Codec
Format profile              : Baseline@L3
Format settings, CABAC      : No
Format settings, ReFrames   : 2 frames
Codec ID                    : avc1
Codec ID/Info               : Advanced Video Coding
Duration                    : 1h 54mn
Bit rate                    : 3 759 Kbps
Width                       : 1 280 pixels
Height                      : 716 pixels
Display aspect ratio        : 16:9
Frame rate mode             : Constant
Frame rate                  : 25.000 fps
Color space                 : YUV
Chroma subsampling          : 4:2:0
Bit depth                   : 8 bits
Scan type                   : Progressive
Bits/(Pixel*Frame)          : 0.164
Stream size                 : 3.02 GiB (97%)
Writing library             : x264 core 124 r2197 69a0443
Encoding settings           : cabac=0 / ref=2 / deblock=1:0:0 / analyse=0x1:0x11 / me=esa / subme=5 / psy=1 / psy_rd=1.00:0.00 / mixed_ref=1 / me_range=16 / chroma_me=1 / trellis=0 / 8x8dct=0 / cqm=0 / deadzone=21,11 / fast_pskip=1 / chroma_qp_offset=0 / threads=3 / sliced_threads=0 / nr=0 / decimate=1 / interlaced=0 / bluray_compat=0 / constrained_intra=0 / bframes=0 / weightp=0 / keyint=250 / keyint_min=25 / scenecut=40 / intra_refresh=0 / rc_lookahead=40 / rc=crf / mbtree=1 / crf=22.0 / qcomp=0.60 / qpmin=2 / qpmax=30 / qpstep=4 / vbv_maxrate=8000 / vbv_bufsize=1835 / crf_max=0.0 / nal_hrd=none / ip_ratio=1.41 / aq=1:1.00
Language                    : English

Audio
ID                          : 2
Format                      : AAC
Format/Info                 : Advanced Audio Codec
Format profile              : LC
Codec ID                    : 40
Duration                    : 1h 54mn
Bit rate mode               : Variable
Bit rate                    : 128 Kbps
Maximum bit rate            : 8 000 Kbps
Channel(s)                  : 2 channels
Channel positions           : Front: L R
Sampling rate               : 44.1 KHz
Compression mode            : Lossy
Stream size                 : 105 MiB (3%)
Language                    : English


_________________
Насчет матчей чемпионата Аргентины, Бразилии, Южной Кореи и других лиг пишите в ЛС.


Последний раз редактировалось: Chameleon (2016-08-07 12:00), всего редактировалось 1 раз
Profile PM

vetalaka


Стаж: 5 лет 1 месяц

Сообщений: 34

Откуда: Днепропетровск

Украина

Торрент-статистика

post 29-Фев-2016 15:00 (спустя 3 часа)

Quote


Низкий поклон!
Profile PM

sololfc


Стаж: 4 месяца 23 дня

Сообщений: 1

Откуда: Одесса

Россия

Торрент-статистика

post 12-Июл-2016 07:20 (спустя 4 месяца 11 дней)

Quote


Встаньте на раздачу пожааалуйста ac
Profile PM
Ответить на тему