Чемпионат Англии 2015-16 / Championship / Highlights Sky Bet Championship / Обзор 38-го тура / sportdigital HD [24.03.2016, 1080i, H.264, EN, HDTV, SAT]

Ответить на тему

Автор Сообщение

K. Valera


Стаж: 4 года 7 месяцев

Сообщений: 781

Украина

Торрент-статистика

post 24-Мар-2016 13:19

Quote


Чемпионат Англии 2015-16 / Championship / Highlights Sky Bet Championship / Обзор 38-го тура / sportdigital HD

Год выпуска: 24.03.2016
Вид спорта: Футбол
Релиз:
Aвтор рипа: K. Valera
Продолжительность: 00:27:05
Комментарий: Профессиональный
Язык комментариев: английский
Канал:
Качество: HDTV / Формат: *.ts Видео
Видео Кодек: AVC
Аудио Кодек: MPEG
Видео: 1920x1080 (16/9), 25,000 fps, 5 770 Kbps
Аудио 1: 160 Kbps, 48 KHz, MPEG 2.0 channels, английский
Аудио 2: 160 Kbps, 48 KHz, MPEG 2.0 channels, интершум
Запись видео: Openbox SX6 HD
Программа корректировки видео: Cypheros TS-Doctor ver. 1.2.22

Код:

General
ID                             : 1119 (0x45F)
Complete name                  : F:\Highlights Sky Bet Championship (38 тур).ts
Format                         : MPEG-TS
File size                      : 1.21 GiB
Duration                       : 27mn 5s
Overall bit rate mode          : Variable
Overall bit rate               : 6 410 Kbps

Video
ID                             : 595 (0x253)
Menu ID                        : 12895 (0x325F)
Format                         : AVC
Format/Info                    : Advanced Video Codec
Format profile                 : High@L4
Format settings, CABAC         : Yes
Format settings, ReFrames      : 3 frames
Codec ID                       : 27
Duration                       : 27mn 4s
Bit rate                       : 5 770 Kbps
Width                          : 1 920 pixels
Height                         : 1 080 pixels
Display aspect ratio           : 16:9
Frame rate                     : 25.000 fps
Standard                       : Component
Color space                    : YUV
Chroma subsampling             : 4:2:0
Bit depth                      : 8 bits
Scan type                      : Interlaced
Scan order                     : Top Field First
Bits/(Pixel*Frame)             : 0.111
Stream size                    : 1.09 GiB (90%)
Encryption                     : TPS-Crypt  or Viaccess
Color range                    : Limited
Color primaries                : BT.709
Transfer characteristics       : BT.709
Matrix coefficients            : BT.709

Audio #1
ID                             : 145 (0x91)
Menu ID                        : 12895 (0x325F)
Format                         : MPEG Audio
Format version                 : Version 1
Format profile                 : Layer 2
Codec ID                       : 3
Duration                       : 27mn 5s
Bit rate mode                  : Constant
Bit rate                       : 160 Kbps
Channel(s)                     : 2 channels
Sampling rate                  : 48.0 KHz
Compression mode               : Lossy
Delay relative to video        : -516ms
Stream size                    : 31.0 MiB (2%)
Language                       : German
Encryption                     : TPS-Crypt  or Viaccess

Audio #2
ID                             : 146 (0x92)
Menu ID                        : 12895 (0x325F)
Format                         : MPEG Audio
Format version                 : Version 1
Format profile                 : Layer 2
Codec ID                       : 3
Duration                       : 27mn 5s
Bit rate mode                  : Constant
Bit rate                       : 160 Kbps
Channel(s)                     : 2 channels
Sampling rate                  : 48.0 KHz
Compression mode               : Lossy
Delay relative to video        : -588ms
Stream size                    : 31.0 MiB (2%)
Language                       : English
Encryption                     : TPS-Crypt  or Viaccess
Скриншоты

_________________
webmoney: R102437980674, U865336828210, Bitcoin: 1C5RGE4438bq3VfVUEfcw63rmYrb6Sgr29. Файлы не конвертирую. Готов реанимировать почти все свои раздачи.
Profile PM
Ответить на тему