Суперкубок Англии 2016 / Community Shield 2016 / Лестер - Манчестер Юнайтед / Обзор / Match of the Day / BBC One HD [07.08.2016, 720p, H.264, EN, IPTV]

Ответить на тему

Автор Сообщение

bessiaeb


Стаж: 5 лет 10 месяцев

Сообщений: 70

Откуда: Kosovo

Албания

Торрент-статистика

post 08-Авг-2016 03:43

Quote


MOTD FA Community Shield Leicester City vs Manchester Untied Highlights 720p WEB-DL x264-iNTERMEDiA

Sport: Football
Competition: FA Community Shield
Round: N/A
Date: 2016 08 07 23:30 (CET)
Channel: BBC One HD
Runtime: Check Mediainfo

Filename: MOTD FA Community Shield Leicester City vs Manchester Untied Highlights 720p WEB-DL x264-iNTERMEDiA.mkv
Filesize: 949 MB
Source: IPTV (WEB-DL)
Video Codec: H264/AVC
Audio Codec: AAC
Video info: 1280x720(16:9), 25fps, 2900 kbps
Audio info: 48 kHz, 2 channels, 96 kbps
Audio language: English
NOTE: Highlights from the 2016 Community Shield between Premier League champions Leicester City and FA Cup winners Manchester United.

Screens Mediainfo:

Код:

General
Unique ID                   : 173642122283357688287062448311319694489 (0x82A2419C4D9B8C95A3696CD3F9248C99)
Complete name               : D:\Movies & TV Shows\Captures\20160807 MOTD FA Community Shield Leicester City vs Manchester Untied Highlights 720p WEB-DL x264-iNTERMEDiA.mkv
Format                      : Matroska
Format version              : Version 4 / Version 2
File size                   : 949 MiB
Duration                    : 44mn 25s
Overall bit rate            : 2 986 Kbps
Encoded date                : UTC 2016-08-07 22:19:35
Writing application         : mkvmerge v8.3.0 ('Over the Horizon') 32bit
Writing library             : libebml v1.3.1 + libmatroska v1.4.2

Video
ID                          : 1
Format                      : AVC
Format/Info                 : Advanced Video Codec
Format profile              : High@L3.1
Format settings, CABAC      : Yes
Format settings, ReFrames   : 4 frames
Codec ID                    : V_MPEG4/ISO/AVC
Duration                    : 44mn 25s
Bit rate                    : 2 888 Kbps
Width                       : 1 280 pixels
Height                      : 720 pixels
Display aspect ratio        : 16:9
Frame rate mode             : Constant
Frame rate                  : 25.000 fps
Color space                 : YUV
Chroma subsampling          : 4:2:0
Bit depth                   : 8 bits
Scan type                   : Progressive
Bits/(Pixel*Frame)          : 0.125
Stream size                 : 918 MiB (97%)
Default                     : Yes
Forced                      : No

Audio
ID                          : 2
Format                      : AAC
Format/Info                 : Advanced Audio Codec
Format profile              : LC
Codec ID                    : A_AAC
Duration                    : 44mn 25s
Bit rate                    : 96.0 Kbps
Channel(s)                  : 6 channels
Channel positions           : Front: L C R, Side: L R, LFE
Sampling rate               : 48.0 KHz
Frame rate                  : 46.875 fps (1024 spf)
Compression mode            : Lossy
Delay relative to video     : -13ms
Stream size                 : 30.3 MiB (3%)
Default                     : Yes
Forced                      : No
Profile PM
Ответить на тему