Чемпионат Англии 2016-17 / English Premier League / 2-й тур / Etter kampen (После матча) / Sport Premium HD [19.08.2016, 720p, H.264, NOR-ENG, Dolby 5.1, SatRip, HDTVRip]

Ответить на тему

Автор Сообщение

K. Valera


Стаж: 4 года 7 месяцев

Сообщений: 781

Украина

Торрент-статистика

post 20-Авг-2016 19:24

Quote


Чемпионат Англии 2016-17 / English Premier League / 2-й тур / Etter kampen (После матча) / Sport Premium HD




Год выпуска: 19.08.2016
Вид : Футбол
Релиз:
Aвтор рипа: K. Valera
Продолжительность: 00:27:31
Канал:
Комментарий: Профессиональный
Язык комментариев: Норвежский, английский
Качество: HDTV / Формат: *.ts / Видео Кодек: AVC / Аудио Кодек: AC-3
Видео: 1280x720 (16/9), 50,000 fps, 6 142 Kbps
Аудио: 384 Kbps, 48 KHz, AC-3 5.1 channels
Запись видео:
Программа корректировки видео: Cypheros TS-Doctor ver. 1.2.22

Код:

General
ID                             : 68 (0x44)
Complete name                  : D:\111\Etter kampen 19.08.2016.ts
Format                         : MPEG-TS
File size                      : 1.32 GiB
Duration                       : 27mn 31s
Overall bit rate mode          : Variable
Overall bit rate               : 6 869 Kbps

Video
ID                             : 1176 (0x498)
Menu ID                        : 1034 (0x40A)
Format                         : AVC
Format/Info                    : Advanced Video Codec
Format profile                 : High@L4
Format settings, CABAC         : Yes
Format settings, ReFrames      : 4 frames
Codec ID                       : 27
Duration                       : 22h 5mn
Bit rate                       : 6 142 Kbps
Width                          : 1 280 pixels
Height                         : 720 pixels
Display aspect ratio           : 16:9
Frame rate                     : 50.000 fps
Color space                    : YUV
Chroma subsampling             : 4:2:0
Bit depth                      : 8 bits
Scan type                      : Progressive
Bits/(Pixel*Frame)             : 0.133
Stream size                    : 56.9 GiB

Audio
ID                             : 3153 (0xC51)
Menu ID                        : 1034 (0x40A)
Format                         : AC-3
Format/Info                    : Audio Coding 3
Mode extension                 : CM (complete main)
Format settings, Endianness    : Big
Codec ID                       : 6
Duration                       : 27mn 29s
Bit rate mode                  : Constant
Bit rate                       : 384 Kbps
Channel(s)                     : 6 channels
Channel positions              : Front: L C R, Side: L R, LFE
Sampling rate                  : 48.0 KHz
Compression mode               : Lossy
Delay relative to video        : 112ms
Stream size                    : 75.5 MiB (6%)
Language                       : Norwegian
Скриншоты

_________________
webmoney: R102437980674, U865336828210, Bitcoin: 1C5RGE4438bq3VfVUEfcw63rmYrb6Sgr29. Файлы не конвертирую. Готов реанимировать почти все свои раздачи.
Profile PM
Ответить на тему