Чемпионат Англии 2016-17 / Championship / 8-й тур / Championship Skróty 7 kolejki / Eleven HD [19.09.2016, 1080i, H.264, POL, HDTV, SAT]

Ответить на тему

Автор Сообщение

K. Valera


Стаж: 4 года 7 месяцев

Сообщений: 778

Украина

Торрент-статистика

post 19-Сен-2016 16:30

Quote


Чемпионат Англии 2016-17 / Championship / 7-й раунд / Championship Skróty 7 kolejki / Eleven HD

Год выпуска: 19.09.2016
Вид спорта: Футбол
Релиз:
Aвтор рипа: K. Valera
Продолжительность: 00:26:23
Канал:
Комментарий: Профессиональный
Язык комментариев: Польский
Качество: HDTV / Формат: *.ts / Видео Кодек: AVC / Аудио Кодек: AC-3
Видео: 1920x1080 (16/9), 25,000 fps, 6 637 Kbps
Аудио: 160 Kbps, 48 KHz, Dolby AC-3, 2.0 channels
Запись видео:
Программа корректировки видео: Cypheros TS-Doctor ver. 1.2.22

Код:

General
ID                             : 1500 (0x5DC)
Complete name                  : D:\111\Championship Skroty 7 kolejki 2016.ts
Format                         : MPEG-TS
File size                      : 1.32 GiB
Duration                       : 26mn 22s
Overall bit rate mode          : Variable
Overall bit rate               : 7 152 Kbps

Video
ID                             : 166 (0xA6)
Menu ID                        : 5107 (0x13F3)
Format                         : AVC
Format/Info                    : Advanced Video Codec
Format profile                 : High@L4
Format settings, CABAC         : Yes
Format settings, ReFrames      : 3 frames
Format settings, GOP           : M=4, N=32
Codec ID                       : 27
Duration                       : 26mn 21s
Bit rate                       : 6 637 Kbps
Width                          : 1 920 pixels
Height                         : 1 080 pixels
Display aspect ratio           : 16:9
Frame rate                     : 25.000 fps
Standard                       : Component
Color space                    : YUV
Chroma subsampling             : 4:2:0
Bit depth                      : 8 bits
Scan type                      : Interlaced
Scan order                     : Top Field First
Bits/(Pixel*Frame)             : 0.128
Stream size                    : 1.22 GiB (93%)
Color range                    : Limited
Color primaries                : BT.709
Transfer characteristics       : BT.709
Matrix coefficients            : BT.709

Audio
ID                             : 104 (0x68)
Menu ID                        : 5107 (0x13F3)
Format                         : AC-3
Format/Info                    : Audio Coding 3
Mode extension                 : CM (complete main)
Format settings, Endianness    : Big
Codec ID                       : 6
Duration                       : 26mn 22s
Bit rate mode                  : Constant
Bit rate                       : 160 Kbps
Channel(s)                     : 2 channels
Channel positions              : Front: L R
Sampling rate                  : 48.0 KHz
Compression mode               : Lossy
Delay relative to video        : -319ms
Stream size                    : 30.2 MiB (2%)
Language                       : Polish
Скриншоты



_________________
webmoney: R102437980674, U865336828210, Bitcoin: 1C5RGE4438bq3VfVUEfcw63rmYrb6Sgr29. Файлы не конвертирую. Готов реанимировать почти все свои раздачи.
Profile PM
Ответить на тему