Чемпионат Англии 2017-18 / Vanarama National League / Review / Episode 6 / BT Sport [29.08.2017., HD, 720p, H264, EN, SAT]

Ответить на тему

Автор Сообщение

Chameleon


Стаж: 6 лет 11 месяцев

Сообщений: 4119

Откуда: Tyumen

Россия

Торрент-статистика

post 30-Авг-2017 22:26

Quote



Чемпионат Англии 2017-18 / Vanarama National League / Review / Episode 6


Канал: BT Sport.
Комментарий: Профессиональный ().
Язык комментариев: Английский.

Код:

Format                      : MPEG-4
Format profile              : Base Media / Version 2
Codec ID                    : mp42
File size                   : 317 MiB
Duration                    : 24mn 4s
Overall bit rate mode       : Variable
Overall bit rate            : 1 843 Kbps
Encoded date                : UTC 2017-08-28 12:39:47
Tagged date                 : UTC 2017-08-28 12:39:47
gsst                        : 0
gstd                        : 1444513

Video
ID                          : 1
Format                      : AVC
Format/Info                 : Advanced Video Codec
Format profile              : Main@L3.1
Format settings, CABAC      : Yes
Format settings, ReFrames   : 3 frames
Codec ID                    : avc1
Codec ID/Info               : Advanced Video Coding
Duration                    : 24mn 4s
Bit rate                    : 1 714 Kbps
Width                       : 1 280 pixels
Height                      : 720 pixels
Display aspect ratio        : 16:9
Frame rate mode             : Constant
Frame rate                  : 25.000 fps
Color space                 : YUV
Chroma subsampling          : 4:2:0
Bit depth                   : 8 bits
Scan type                   : Progressive
Bits/(Pixel*Frame)          : 0.074
Stream size                 : 295 MiB (93%)
Color range                 : Limited
Color primaries             : BT.709
Transfer characteristics    : BT.709
Matrix coefficients         : BT.709

Audio
ID                          : 2
Format                      : AAC
Format/Info                 : Advanced Audio Codec
Format profile              : LC
Codec ID                    : 40
Duration                    : 24mn 4s
Bit rate mode               : Variable
Bit rate                    : 126 Kbps
Channel(s)                  : 2 channels
Channel positions           : Front: L R
Sampling rate               : 44.1 KHz
Compression mode            : Lossy
Stream size                 : 21.6 MiB (7%)

Для поддержания дальнейших релизов можете сделать "пожертвование":
PayPal -> chameleon13@ro.ru
Skrill -> chameleon13@ro.ru
Yandex -> 410015480601949


_________________
Продам матчи. Подробности в ЛС.
PayPal -> chameleon13@ro.ru
Skrill -> chameleon13@ro.ru
Yandex -> 410015480601949
Profile PM
Ответить на тему