Кубок Англии 2010/11 l 3-ий раунд l Обзор матчей l ITV1 [08.01.2011, SD, x264, ENG, SAT]

Ответить на тему

Автор Сообщение

vasilyponomarev


Стаж: 6 лет

Сообщений: 111

Откуда: Москва

Россия

Торрент-статистика

post 11-Янв-2011 23:19

Quote


Кубок Англии 2010/11 l 3-ий раунд l Обзор матчей l ITV1

Год выпуска: 2011
Вид спорта: Футбол
Участники: Команды Кубка Англии 2010/11
Продолжительность: 01:09:31

Доп. информация: За рип спасибо albiondean,раздача :http://rgfootball.net/viewtopic.php?t=2488
08/01 Стивенэйдж 3 - 1 Ньюкасл Юнайтед
- Блэкберн 1 - 0 Квинс Парк Рейнджерс
- Болтон 2 - 0 Йорк Сити
- Брайтон-энд-Хоув Альбион 3 - 1 Портсмут
- Бристоль Сити 0 - 3 Шеффилд Уэнсдей
- Бернли 4 - 2 Порт-Вейл
- Ковентри Сити 2 - 1 Кристалл Палас
- Донкастер Роверс 2 - 2 Вулверхэмптон
- Фулхэм 6 - 2 Питерборо Юнайтед
- Хаддерсфилд Таун 2 - 0 Dover
- Халл Сити 2 - 3 Уиган
- Норвич Сити 0 - 1 Лейтон Ориент
- Престон Норт Энд 1 - 2 Ноттингем Форест
- Ридинг 1 - 0 Вест Бромвич Альбион
- Сканторп Юнайтед 1 - 5 Эвертон
- Шеффилд Юнайтед 1 - 3 Астон Вилла
- Саутгемптон 2 - 0 Блэкпул
- Сток Сити 1 - 1 Кардифф Сити
- Сандерленд 1 - 2 Ноттс Каунти
- Суонси Сити 4 - 0 Колчестер Юнайтед
- Торки Юнайтед 1 - 0 Карлайл Юнайтед
- Уотфорд 4 - 1 Хартлпул Юнайтед
- Вест Хэм 2 - 0 Барнсли
- Бертон Альбион 2 - 1 Мидлсбро
- Милуолл 1 - 4 Бирмингем
- Арсенал 1 - 1 Лидс Юнайтед
Video
ID : 1
Format : AVC
Format/Info : Advanced Video Codec
Format profile : Baseline@L3.0
Format settings, CABAC : No
Format settings, ReFrames : 1 frame
Codec ID : avc1
Codec ID/Info : Advanced Video Coding
Duration : 1h 9mn
Bit rate mode : Variable
Bit rate : 410 Kbps
Width : 624 pixels
Height : 336 pixels
Display aspect ratio : 1.857
Frame rate mode : Constant
Frame rate : 25.000 fps
Color space : YUV
Chroma subsampling : 4:2:0
Bit depth : 8 bits
Scan type : Progressive
Bits/(Pixel*Frame) : 0.078
Stream size : 206 MiB (76%)
Writing library : x264 core 79
Encoding settings : cabac=0 / ref=1 / deblock=1:0:0 / analyse=0x1:0x131 / me=tesa / subme=9 / psy=1 / psy_rd=1.0:0.0 / mixed_ref=0 / me_range=24 / chroma_me=1 / trellis=0 / 8x8dct=0 / cqm=0 / deadzone=21,11 / chroma_qp_offset=-2 / threads=24 / nr=0 / decimate=1 / mbaff=0 / constrained_intra=0 / bframes=0 / wpredp=0 / keyint=250 / keyint_min=25 / scenecut=40 / rc_lookahead=40 / rc=cbr / mbtree=1 / bitrate=410 / ratetol=9.8 / qcomp=0.60 / qpmin=10 / qpmax=51 / qpstep=4 / vbv_maxrate=10000 / vbv_bufsize=10000 / ip_ratio=1.41 / aq=1:1.00

Audio
ID : 2
Format : AAC
Format/Info : Advanced Audio Codec
Format profile : LC
Codec ID : 40
Duration : 1h 9mn
Bit rate mode : Variable
Bit rate : 128 Kbps
Channel(s) : 2 channels
Channel positions : Front: L R
Sampling rate : 44.1 KHz
Compression mode : Lossy
Stream size : 63.8 MiB (23%)
СКРИНШОТЫ
Profile PM

dav7dbecks


Стаж: 6 лет

Сообщений: 14989

Откуда: там где жизнь ничего не стоит, иногда обретает ценность смерть

СССР

Торрент-статистика

post 11-Янв-2011 23:44 (спустя 24 минуты)

Quote


Рип с Рипа больше не делай

_________________
Manchester is Red
голосуйте
Profile PM

vasilyponomarev


Стаж: 6 лет

Сообщений: 111

Откуда: Москва

Россия

Торрент-статистика

post 11-Янв-2011 23:45 (спустя 1 минута)

Quote


manager
Хорошо,спасибо,ещё раз за помощь
Profile PM
Ответить на тему