Чемпионат Англии 2012-13 / 30-й тур / Обзор / Спорт1 [18.03.2013, 720p, H.264, RU, WebHDRip]

Ответить на тему

Автор Сообщение

Heavy_serg


Стаж: 5 лет 9 месяцев

Сообщений: 1994

Откуда: Moscow

Россия

Торрент-статистика

post 19-Мар-2013 21:49

Quote



Чемпионат Англии. Обзор 30 тура. Эфир от 18 марта 2013 года


Продолжительность: 00:51:15
Год Выпуска: 2013
Вид Спорта: Футбол
Комментарий: Руслан Гатаулин
Язык Комментария: Русский (Одноголосый)
Автор рипа: Web HD Rip

Качество: WebHDRip / Формат: mp4 / Видео Кодек: H.264 / Аудио Кодек: AAC
Видео: 1280x720 (16/9), 30,000fps, ~2.0 Мбит/сек / Аудио: 128 Kbps, 44.1 KHz, 2 channels

Максимально качественный релиз, найденный в сети
General
Complete name : D:\Downloads\EPL 12-13 Review Matchday 30 720p [rgfootball.net].mp4
Format : MPEG-4
Format profile : Base Media
Codec ID : isom
File size : 783 MiB
Duration : 51mn 15s
Overall bit rate : 2 134 Kbps
Tagged date : UTC 2013-03-18 23:44:05
Writing application : Lavf54.59.106

Video
ID : 1
Format : AVC
Format/Info : Advanced Video Codec
Format profile : High@L3.1
Format settings, CABAC : Yes
Format settings, ReFrames : 5 frames
Codec ID : avc1
Codec ID/Info : Advanced Video Coding
Duration : 51mn 15s
Bit rate : 1 998 Kbps
Width : 1 280 pixels
Height : 720 pixels
Display aspect ratio : 16:9
Frame rate mode : Constant
Frame rate : 30.000 fps
Color space : YUV
Chroma subsampling : 4:2:0
Bit depth : 8 bits
Scan type : Progressive
Bits/(Pixel*Frame) : 0.072
Stream size : 732 MiB (94%)
Writing library : x264 core 130

Audio
ID : 2
Format : AAC
Format/Info : Advanced Audio Codec
Format profile : LC
Codec ID : 40
Duration : 51mn 15s
Bit rate mode : Variable
Bit rate : 128 Kbps
Maximum bit rate : 3 000 Kbps
Channel(s) : 2 channels
Channel positions : Front: L R
Sampling rate : 44.1 KHz
Compression mode : Lossy
Stream size : 47.0 MiB (6%)


_________________
Mes Que Un Club
Profile PM
Ответить на тему