Обзоры Лиги Чемпионов Обзоры 2003 года / UEFA Champions League 2003 Review / НТВ, Спорт [2003, MPEG1, RUS, TV]

Ответить на тему

Автор Сообщение

oleg_1954


Стаж: 6 лет

Сообщений: 7807

Откуда: Волгоград

Россия

Торрент-статистика

post 02-Сен-2014 17:59

Quote


Обзоры Лиги Чемпионов 2003 года
UEFA Champions League 2003

Год выпуска: 2003
Вид спорта: Футбол
Продолжительность: 03:43:42
Описание: Обзоры Лиги Чемпионов 2003 года
Комментаторы: В.Уткин, А.Шмурнов, Ю.Розанов, Г.Черданцев
Качество: TVRip
Формат: MPG
Видео кодек: MPEG1
Аудио кодек: MPEG1
Видео: MPEG1 Video 352x576, 480x360, 352x288 25 fps Bit rate 1000-1400 Aspect Ratio 4:3
Аудио: Русский MPEG1 Audio 44100Hz stereo 224 kbps
Доп.инфо: Из моих архивов
General
Format : MPEG-PS
File size : 782 MiB
Duration : 1h 2mn
Overall bit rate mode : Variable
Overall bit rate : 1 747 Kbps
Writing library : encoded by TMPGEnc (ver. 2.51.33.127)

Video
ID : 224 (0xE0)
Format : MPEG Video
Format version : Version 1
Format settings, BVOP : No
Format settings, Matrix : Default
Format settings, GOP : M=3, N=15
Duration : 1h 2mn
Bit rate mode : Variable
Bit rate : 1 488 Kbps
Width : 352 pixels
Height : 288 pixels
Display aspect ratio : 4:3
Frame rate : 25.000 fps
Standard : PAL
Color space : YUV
Chroma subsampling : 4:2:0
Bit depth : 8 bits
Scan type : Progressive
Compression mode : Lossy
Bits/(Pixel*Frame) : 0.587
Time code of first frame : 00:00:00:00
Time code source : Group of pictures header
Stream size : 666 MiB (85%)
Source encoded stream size : encoded by TMPGEnc (ver. 2.51.33.127)
Writing library : encoded by TMPGEnc (ver. 2.51.33.127)

Audio
ID : 192 (0xC0)
Format : MPEG Audio
Format version : Version 1
Format profile : Layer 2
Duration : 1h 2mn
Bit rate mode : Constant
Bit rate : 224 Kbps
Channel(s) : 2 channels
Sampling rate : 44.1 KHz
Compression mode : Lossy
Stream size : 100 MiB (13%)

_________________
Donate:
Sberbank 4276 1100 1055 1402
Yandexmoney 410011231407235
Profile PM
Ответить на тему