Обзоры Лиги Чемпионов 2009 / UEFA Champions League 2009 Review / НТВ+, Спорт [2009, XviD, 400p, RUS, SAT]

Ответить на тему

Автор Сообщение

oleg_1954


Стаж: 6 лет

Сообщений: 7810

Откуда: Волгоград

Россия

Торрент-статистика

post 06-Ноя-2014 18:25

Quote


Обзоры Лиги Чемпионов 2009
UEFA Champions League 2009 Review

Год выпуска: 2009 Вид спорта: Футбол
Продолжительность: ~06:30:00
Описание: Обзоры Лиги Чемпионов 2009
Комментаторы: разные
Качество: SATRip
Формат: AVI
Видео кодек: XviD
Аудио кодек: MP3
Видео: XviD Video 704x448, 704x400, 656x368 25 fps Bit rate ~1300 Aspect Ratio 16:9
Аудио: Русский MP3 48000 Hz stereo 128 Kbps
Доп.инфо: Из моих архивов. "Champion's League 50 Greatest Goals" - комментарий английский
General
Format : AVI
Format/Info : Audio Video Interleave
File size : 400 MiB
Duration : 37mn 58s
Overall bit rate : 1 471 Kbps
Writing application : VirtualDubMod 1.5.4.1 (build 2178/release)
Writing library : VirtualDubMod build 2178/release

Video
ID : 0
Format : MPEG-4 Visual
Format profile : Advanced Simple@L5
Format settings, BVOP : Yes
Format settings, QPel : No
Format settings, GMC : No warppoints
Format settings, Matrix : Custom
Codec ID : XVID
Codec ID/Hint : XviD
Duration : 37mn 58s
Bit rate : 1 335 Kbps
Width : 704 pixels
Height : 448 pixels
Display aspect ratio : 16:10
Frame rate : 25.000 fps
Color space : YUV
Chroma subsampling : 4:2:0
Bit depth : 8 bits
Scan type : Progressive
Compression mode : Lossy
Bits/(Pixel*Frame) : 0.169
Stream size : 363 MiB (91%)
Writing library : XviD 1.3.0.dev55

Audio
ID : 1
Format : MPEG Audio
Format version : Version 1
Format profile : Layer 3
Mode : Joint stereo
Mode extension : MS Stereo
Codec ID : 55
Codec ID/Hint : MP3
Duration : 37mn 58s
Bit rate mode : Constant
Bit rate : 128 Kbps
Channel(s) : 2 channels
Sampling rate : 48.0 KHz
Compression mode : Lossy
Stream size : 34.8 MiB (9%)
Alignment : Aligned on interleaves
Interleave, duration : <a href="http://cityadspix.com/tsclick-LJQRIL4F-MKIGQL0P?url...kw=80%20ms" target="_blank" alt="Sven MS-80" title="Sven MS-80" style="">80 ms</a> (2.00 video frames)
Interleave, preload duration : 504 ms
Writing library : LAME3.97
Encoding settings : -m j -V 4 -q 2 -lowpass 17 -b 128

_________________
Donate:
Sberbank 4276 1100 1055 1402
Yandexmoney 410011231407235
Profile PM

ericcartmanez21


Стаж: 2 года 1 месяц

Сообщений: 14

Россия

Торрент-статистика

post 12-Ноя-2014 21:19 (спустя 6 дней)

Quote


Спасибо большое!
Profile PM
Ответить на тему