Обзоры Лиги Чемпионов 2009 / UEFA Champions League 2009 Review / НТВ+ [2009, XviD, 400p, RUS, SAT]

Ответить на тему

Автор Сообщение

oleg_1954


Стаж: 6 лет

Сообщений: 7807

Откуда: Волгоград

Россия

Торрент-статистика

post 12-Ноя-2014 18:50

Quote


Обзоры Лиги Чемпионов 2009
UEFA Champions League 2009 Review

Год выпуска: 2009 Вид спорта: Футбол
Продолжительность: ~04:40:00
Описание: Обзоры Лиги Чемпионов 2009
Комментаторы: разные
Качество: SATRip
Формат: AVI
Видео кодек: XviD
Аудио кодек: MP3
Видео: XviD Video 704x400, 700x388, 25 fps Bit rate ~1600 Aspect Ratio 16:9
Аудио: Русский MP3 48000 Hz stereo 128 Kbps
Доп.инфо: Из моих архивов
General
Format : AVI
Format/Info : Audio Video Interleave
Format profile : OpenDML
File size : 2.06 GiB
Duration : 2h 54mn
Overall bit rate : 1 682 Kbps
Writing library : Boilsoft Joiner build 2411/release

Video
ID : 0
Format : MPEG-4 Visual
Format profile : Advanced Simple@L5
Format settings, BVOP : Yes
Format settings, QPel : No
Format settings, GMC : No warppoints
Format settings, Matrix : Custom
Codec ID : XVID
Codec ID/Hint : XviD
Duration : 2h 54mn
Bit rate : 1 541 Kbps
Width : 704 pixels
Height : 400 pixels
Display aspect ratio : 16:9
Frame rate : 25.000 fps
Color space : YUV
Chroma subsampling : 4:2:0
Bit depth : 8 bits
Scan type : Progressive
Compression mode : Lossy
Bits/(Pixel*Frame) : 0.219
Stream size : 1.88 GiB (92%)
Writing library : XviD 1.3.0.dev55

Audio
ID : 1
Format : MPEG Audio
Format version : Version 1
Format profile : Layer 3
Mode : Joint stereo
Mode extension : MS Stereo
Codec ID : 55
Codec ID/Hint : MP3
Duration : 2h 54mn
Bit rate mode : Constant
Bit rate : 128 Kbps
Channel(s) : 2 channels
Sampling rate : 48.0 KHz
Compression mode : Lossy
Stream size : 160 MiB (8%)
Alignment : Aligned on interleaves
Interleave, duration : 40 ms (1.00 video frame)
Interleave, preload duration : 480 ms
Writing library : LAME3.97
Encoding settings : -m j -V 4 -q 2 -lowpass 17 -b 128

_________________
Donate:
Sberbank 4276 1100 1055 1402
Yandexmoney 410011231407235
Profile PM

deadушка


Стаж: 5 лет 8 месяцев

Сообщений: 1461

Россия

Торрент-статистика

post 13-Ноя-2014 08:37 (спустя 13 часов)

Quote


Спасибо. Обзоры матчей Групповых турниров ЛЧ и ЛЕ сезона 2009-2010 планируешь выложить.
Profile PM
Ответить на тему