Обзор Лиги Чемпионов 2009 / UEFA Champions League 2009 Review / SKY HD [29.09.2009, HD, 1080i, ITA, SAT]

Ответить на тему

Автор Сообщение

oleg_1954


Стаж: 6 лет

Сообщений: 7807

Откуда: Волгоград

Россия

Торрент-статистика

post 26-Ноя-2014 18:23

Quote


Обзор Лиги Чемпионов 29.09.2009
UEFA Champions League 29.09.2009 Review

Год выпуска: 2009 Вид спорта: Футбол
Продолжительность: 01:43:50
Описание: Обзор Лиги Чемпионов 29.09.2009
Комментаторы: Итальянские, разные
Качество: SATRip
Формат: TS
Видео кодек: H.264
Аудио кодек: AC3
Видео: MPEG4 Video H.264 1920x1080 25 fps Bit rate 7600 Aspect Ratio 16:9
Аудио: Итальянский AC3 48000 Hz 6 channels 384 Kbps
Доп.инфо: Из моих архивов
GeneralGeneral
ID : 1 (0x1)
Format : MPEG-TS
File size : 3.15 GiB
Duration : 51mn 26s
Overall bit rate mode : Variable
Overall bit rate : 8 770 Kbps
Maximum Overall bit rate : 35.5 Mbps

Video
ID : 4113 (0x1011)
Menu ID : 1 (0x1)
Format : AVC
Format/Info : Advanced Video Codec
Format profile : Main@L4.0
Format settings, CABAC : Yes
Format settings, ReFrames : 4 frames
Codec ID : 27
Duration : 51mn 26s
Bit rate mode : Variable
Bit rate : 7 949 Kbps
Maximum bit rate : 40.0 Mbps
Width : 1 920 pixels
Height : 1 080 pixels
Display aspect ratio : 16:9
Frame rate : 25.000 fps
Color space : YUV
Chroma subsampling : 4:2:0
Bit depth : 8 bits
Scan type : Interlaced
Bits/(Pixel*Frame) : 0.153
Stream size : 2.86 GiB (91%)
Color primaries : BT.709
Transfer characteristics : BT.709
Matrix coefficients : BT.709

Audio
ID : 4352 (0x1100)
Menu ID : 1 (0x1)
Format : AC-3
Format/Info : Audio Coding 3
Mode extension : CM (complete main)
Format settings, Endianness : Big
Codec ID : 129
Duration : 51mn 27s
Bit rate mode : Constant
Bit rate : 384 Kbps
Channel(s) : 6 channels
Channel positions : Front: L C R, Side: L R, LFE
Sampling rate : 48.0 KHz
Bit depth : 16 bits
Compression mode : Lossy
Delay relative to video : -36ms
Stream size : 141 MiB (4%)
Language : Italian

_________________
Donate:
Sberbank 4276 1100 1055 1402
Yandexmoney 410011231407235
Profile PM
Ответить на тему