Обзоры и голы Лиги Чемпионов 2009 / UEFA Champions League 2009 Reviews & Goals / НТВ+ [2009, XviD, 400p, RUS, SAT]

Ответить на тему

Автор Сообщение

oleg_1954


Стаж: 6 лет

Сообщений: 7807

Откуда: Волгоград

Россия

Торрент-статистика

post 16-Янв-2015 18:20

Quote


Обзоры и голы Лиги Чемпионов 2009
UEFA Champions League 2009 Reviews & Goals

Год выпуска: 2009 Вид спорта: Футбол
Продолжительность: 06:48:36
Описание: Обзоры и голы Лиги Чемпионов 2009
Комментаторы: Русские (разные)
Качество: SATRip
Формат: AVI
Видео кодек: XviD
Аудио кодек: MP3
Видео: XviD Video 704x400 25 fps Bit rate ~1400 Aspect Ratio 16:9
Аудио: Русский MP3 48000 Hz stereo 128 Kbps
Доп.инфо: Из моих архивов
General
Format : AVI
Format/Info : Audio Video Interleave
File size : 700 MiB
Duration : 1h 4mn
Overall bit rate : 1 521 Kbps
Writing application : VirtualDubMod 1.5.4.1 (build 2178/release)
Writing library : VirtualDubMod build 2178/release

Video
ID : 0
Format : MPEG-4 Visual
Format profile : Advanced Simple@L5
Format settings, BVOP : Yes
Format settings, QPel : No
Format settings, GMC : No warppoints
Format settings, Matrix : Custom
Codec ID : XVID
Codec ID/Hint : XviD
Duration : 1h 4mn
Bit rate : 1 386 Kbps
Width : 704 pixels
Height : 400 pixels
Display aspect ratio : 16:9
Frame rate : 25.000 fps
Color space : YUV
Chroma subsampling : 4:2:0
Bit depth : 8 bits
Scan type : Progressive
Compression mode : Lossy
Bits/(Pixel*Frame) : 0.197
Stream size : 638 MiB (91%)
Writing library : XviD 1.2.0.dev47 (UTC 2006-11-01)

Audio
ID : 1
Format : MPEG Audio
Format version : Version 1
Format profile : Layer 3
Mode : Joint stereo
Mode extension : MS Stereo
Codec ID : 55
Codec ID/Hint : MP3
Duration : 1h 4mn
Bit rate mode : Constant
Bit rate : 128 Kbps
Channel(s) : 2 channels
Sampling rate : 48.0 KHz
Compression mode : Lossy
Stream size : 58.9 MiB (8%)
Alignment : Aligned on interleaves
Interleave, duration : 80 ms (2.00 video frames)
Interleave, preload duration : 504 ms

_________________
Donate:
Sberbank 4276 1100 1055 1402
Yandexmoney 410011231407235
Profile PM

Tima Mikhaylichenko


Стаж: 2 года 2 месяца

Сообщений: 99

Великобритания

Торрент-статистика

post 16-Янв-2015 18:46 (спустя 26 минут)

Quote


в HD и в mkv/mp4 никак не получится?
Profile PM

oleg_1954


Стаж: 6 лет

Сообщений: 7807

Откуда: Волгоград

Россия

Торрент-статистика

post 16-Янв-2015 19:10 (спустя 23 минуты)

Quote


Tima Mikhaylichenko писал(а):

в HD и в mkv/mp4 никак не получится?
в 720p и 1080i есть только Premier League Review 2010-2011

_________________
Donate:
Sberbank 4276 1100 1055 1402
Yandexmoney 410011231407235
Profile PM
Ответить на тему