Обзоры Лиги Чемпионов 2009 / UEFA Champions League 2009 Reviews / НТВ [2009, XviD, H.264, 528p, RUS, SAT]

Ответить на тему

Автор Сообщение

oleg_1954


Стаж: 6 лет

Сообщений: 7810

Откуда: Волгоград

Россия

Торрент-статистика

post 13-Фев-2015 18:45

Quote


Обзоры Лиги Чемпионов 2009
UEFA Champions League 2009 Reviews

Год выпуска: 2009 Вид спорта: Футбол
Продолжительность: 02:49:19
Описание: Обзоры Лиги Чемпионов 2009
Комментаторы: Русские (разные)
Качество: SATRip
Формат: AVI, MP4
Видео кодек: XviD, H.264
Аудио кодек: MP3
Видео: XviDVideo 704x528, 704x396, 25 fps Bit rate ~1800 Aspect Ratio 4:3
Аудио: Русский MP3 48000 Hz stereo 128 Kbps
Доп.инфо: Из моих архивов
General
Format : AVI
Format/Info : Audio Video Interleave
File size : 363 MiB
Duration : 26mn 15s
Overall bit rate : 1 935 Kbps
Writing library : TMPGEnc 4.0 XPress Version. 4.7.4.299

Video
ID : 0
Format : MPEG-4 Visual
Format profile : Advanced Simple@L5
Format settings, BVOP : Yes
Format settings, QPel : No
Format settings, GMC : No warppoints
Format settings, Matrix : Default (MPEG)
Codec ID : XVID
Codec ID/Hint : XviD
Duration : 26mn 15s
Bit rate : 1 799 Kbps
Width : 704 pixels
Height : 528 pixels
Display aspect ratio : 4:3
Frame rate : 25.000 fps
Color space : YUV
Chroma subsampling : 4:2:0
Bit depth : 8 bits
Scan type : Progressive
Compression mode : Lossy
Bits/(Pixel*Frame) : 0.194
Stream size : 338 MiB (93%)
Writing library : XviD 1.2.1 (UTC 2008-12-04)

Audio
ID : 1
Format : MPEG Audio
Format version : Version 1
Format profile : Layer 3
Mode : Joint stereo
Mode extension : MS Stereo
Codec ID : 55
Codec ID/Hint : MP3
Duration : 26mn 14s
Bit rate mode : Constant
Bit rate : 128 Kbps
Channel(s) : 2 channels
Sampling rate : 48.0 KHz
Compression mode : Lossy
Stream size : 24.0 MiB (7%)
Alignment : Split accross interleaves
Interleave, duration : 250 ms (6.25 video frames)
Interleave, preload duration : 230 ms
Writing library : LAME3.98.2

_________________
Donate:
Sberbank 4276 1100 1055 1402
Yandexmoney 410011231407235
Profile PM

deadушка


Стаж: 5 лет 8 месяцев

Сообщений: 1465

Россия

Торрент-статистика

post 16-Фев-2015 18:43 (спустя 2 дня 23 часа)

Quote


А обзоры Лиги Европы Группового этапа 2009-2010 у Вас есть. Спасибо.
Profile PM

Ferarri 1985


Стаж: 3 года 4 месяца

Сообщений: 109

Откуда: Пенза

СССР

Торрент-статистика

post 14-Июл-2015 20:22 (спустя 4 месяца 26 дней)

Quote


Сид есть, но подключиться к нему не удается. Ужо несколько днёв закачка на нуле ac Кто-нибудь поможет?

Полного источника не было: 7 дней. Можа кто-то всё-таки вернется?
Profile PM
Ответить на тему