Обзоры Лиги Чемпионов и Футбольные Обзоры 2010 / UEFA Champions League 2010 Reviews / НТВ+ [2010, XviD, 400p, RUS, SAT]

Ответить на тему

Автор Сообщение

oleg_1954


Стаж: 6 лет

Сообщений: 7807

Откуда: Волгоград

Россия

Торрент-статистика

post 04-Мар-2015 18:50

Quote


Обзоры Лиги Чемпионов и Футбольные Обзоры 2010
UEFA Champions League 2010 Reviews

Год выпуска: 2010 Вид спорта: Футбол
Продолжительность: 05:53:57
Описание: Обзоры Лиги Чемпионов и Футбольные Обзоры 2010
Комментаторы: Русские (разные)
Качество: SATRip
Формат: AVI
Видео кодек: XviD
Аудио кодек: MP3
Видео: XviD Video 704x400, 704x392, 25 fps Bit rate ~1700 Aspect Ratio 16:9
Аудио: Русский MP3 48000 Hz stereo 128 Kbps
Доп.инфо: Из моих архивов
General
Format : AVI
Format/Info : Audio Video Interleave
File size : 806 MiB
Duration : 1h 1mn
Overall bit rate : 1 837 Kbps
Writing library : VirtualDub build 32817/release

Video
ID : 0
Format : MPEG-4 Visual
Format profile : Advanced Simple@L5
Format settings, BVOP : Yes
Format settings, QPel : No
Format settings, GMC : No warppoints
Format settings, Matrix : Default (H.263)
Codec ID : XVID
Codec ID/Hint : XviD
Duration : 1h 1mn
Bit rate : 1 700 Kbps
Width : 704 pixels
Height : 400 pixels
Display aspect ratio : 16:9
Frame rate : 25.000 fps
Color space : YUV
Chroma subsampling : 4:2:0
Bit depth : 8 bits
Scan type : Progressive
Compression mode : Lossy
Bits/(Pixel*Frame) : 0.241
Stream size : 746 MiB (93%)
Writing library : XviD 1.2.1 (UTC 2008-12-04)

Audio
ID : 1
Format : MPEG Audio
Format version : Version 1
Format profile : Layer 3
Mode : Joint stereo
Mode extension : MS Stereo
Codec ID : 55
Codec ID/Hint : MP3
Duration : 1h 1mn
Bit rate mode : Constant
Bit rate : 128 Kbps
Channel(s) : 2 channels
Sampling rate : 48.0 KHz
Compression mode : Lossy
Stream size : 56.1 MiB (7%)
Alignment : Split accross interleaves
Interleave, duration : 40 ms (1.00 video frame)
Interleave, preload duration : 500 ms

_________________
Donate:
Sberbank 4276 1100 1055 1402
Yandexmoney 410011231407235
Profile PM

mohammad


Стаж: 2 года 11 месяцев

Сообщений: 4

Иран

Торрент-статистика

post 27-Мар-2015 11:37 (спустя 22 дня)

Quote


great
can you upload highlights of other group match days in 2010-11 champions league season or schalke matches
i love that season's schalke
thanks
Profile PM
Ответить на тему