The Class of '92 / Поколение 92 [2013, Великобритания, Документальный фильм, RU, BDRip, 1080p]

Ответить на тему

Автор Сообщение

K. Valera


Стаж: 4 года 7 месяцев

Сообщений: 778

Украина

Торрент-статистика

post 09-Июл-2015 13:55

Quote


The Class of '92 / Поколение 92

Страна: Великобритания
Жанр: Документальный фильм
Год выпуска: 2013
Продолжительность: 01:34:54

Перевод: Профессиональный российский (многоголосый закадровый)
Cубтитры: нет

Режиссер: Бенжамин Тернер, Гейб Тернер / Benjamin Turner, Gabe Turner

В ролях: Дэвид Бекхэм, Тони Блэр, Дэнни Бойл, Никки Батт, Эрик Кантона, Райан Гиггз, Гари Невилл, Фил Невилл

Описание: Эта история расскажет о пути к мировой славе шести молодых футболистов из «Манчестер Юнайтед»: Дэвида Бекхэма, Райана Гиггза, Пола Скоулза, Ники Батта, Фила и Гари Невиллов.

Фильм охватывает семилетний период их карьеры, начиная с 1992 года, когда команда впервые за 30 лет выиграла Молодежный Кубок Англии и заканчивая 1999-м, когда Лига чемпионов УЕФА стала настоящим триумфом для «Манчестер Юнайтед». При этом можно заметить, что взлеты и падения команды тесно переплетаются с огромными социальными и культурными изменениями, происходившими в Великобритании.

Качество видео: DVDRip
Формат видео: MKV

Видео: H264, 1920x1080, 16:9, 9160 kbps, 25 fps
Аудио: AC3, 48000 Hz, 192 kbps, стерео

Код:

General
Unique ID                      : 216086296628053908410569874629641190425 (0xA290B4F90594DEDAA66273D1FCED3C19)
Complete name                  : E:\Поколение 92.mkv
Format                         : Matroska
Format version                 : Version 4 / Version 2
File size                      : 6.33 GiB
Duration                       : 1h 34mn
Overall bit rate               : 9 542 Kbps
Encoded date                   : UTC 2014-11-29 22:58:05
Writing application            : mkvmerge v6.7.0 ('Back to the Ground') 64bit built on Jan  8 2014 15:10:52
Writing library                : libebml v1.3.0 + libmatroska v1.4.1

Video
ID                             : 1
Format                         : AVC
Format/Info                    : Advanced Video Codec
Format profile                 : High@L4.1
Format settings, CABAC         : Yes
Format settings, ReFrames      : 4 frames
Codec ID                       : V_MPEG4/ISO/AVC
Duration                       : 1h 34mn
Bit rate                       : 9 160 Kbps
Width                          : 1 920 pixels
Height                         : 1 080 pixels
Display aspect ratio           : 16:9
Frame rate mode                : Constant
Frame rate                     : 25.000 fps
Original frame rate            : 23.976 fps
Color space                    : YUV
Chroma subsampling             : 4:2:0
Bit depth                      : 8 bits
Scan type                      : Progressive
Bits/(Pixel*Frame)             : 0.177
Stream size                    : 6.07 GiB (96%)
Language                       : English
Default                        : Yes
Forced                         : No

Audio
ID                             : 2
Format                         : AC-3
Format/Info                    : Audio Coding 3
Mode extension                 : CM (complete main)
Format settings, Endianness    : Big
Codec ID                       : A_AC3
Duration                       : 1h 34mn
Bit rate mode                  : Constant
Bit rate                       : 192 Kbps
Channel(s)                     : 2 channels
Channel positions              : Front: L R
Sampling rate                  : 48.0 KHz
Bit depth                      : 16 bits
Compression mode               : Lossy
Delay relative to video        : 350ms
Stream size                    : 130 MiB (2%)
Language                       : Russian
Default                        : Yes
Forced                         : No

_________________
webmoney: R102437980674, U865336828210, Bitcoin: 1C5RGE4438bq3VfVUEfcw63rmYrb6Sgr29. Файлы не конвертирую. Готов реанимировать почти все свои раздачи.
Profile PM

rjr6


Стаж: 5 лет 9 месяцев

Сообщений: 10

Россия

Торрент-статистика

post 19-Апр-2016 22:42 (спустя 9 месяцев)

Quote


Мужики, встаньте на раздачу. Давно хотел посмотреть этот фильм.
Profile PM

K. Valera


Стаж: 4 года 7 месяцев

Сообщений: 778

Украина

Торрент-статистика

post 21-Апр-2016 22:49 (спустя 2 дня)

Quote


Приеду с коммандировки, взбодрю раздачу.

_________________
webmoney: R102437980674, U865336828210, Bitcoin: 1C5RGE4438bq3VfVUEfcw63rmYrb6Sgr29. Файлы не конвертирую. Готов реанимировать почти все свои раздачи.
Profile PM
Ответить на тему