Документальный фильм Заклятые друзья. Рой Кин и Патрик Виейра. [2016, mp4, WebRip]

Ответить на тему

Автор Сообщение

llecha


Стаж: 3 года 11 месяцев

Сообщений: 271

Торрент-статистика

post 04-Мар-2016 04:02

Quote


Дата/Год выпуска: 2016
Страна: Великобритания
Жанр: Документальный
Продолжительность: 01:00:00
Перевод: русский
Телеканал: Матч
Описание: О противостоянии.

Доп. информация:Перевод фиговый, в футболе люди не шарят никак.
[pre]

Общее
Полное имя : C:\Documents and Settings\Администратор\Рабочий стол\A.Nero.Wolfe.Mystery.Complete.NTSC.DVDRip.x264.DD2.0.Rus.Eng-E76\Документальный фильм Заклятые друзья. Рой Кин и Патрик Виейр.mp4
Формат : MPEG-4
Профиль формата : Base Media
Идентификатор кодека : isom
Размер файла : 859 Мбайт
Продолжительность : 56 м.
Режим общего битрейта : Переменный
Общий поток : 2138 Кбит/сек
Программа кодирования : Lavf56.25.101

Видео
Идентификатор : 1
Формат : AVC
Формат/Информация : Advanced Video Codec
Профиль формата : High@L3.1
Параметр CABAC формата : Да
Параметр ReFrames формата : 4 кадра
Идентификатор кодека : avc1
Идентификатор кодека/Информация : Advanced Video Coding
Продолжительность : 56 м.
Битрейт : 1980 Кбит/сек
Ширина : 1280 пикселей
Высота : 720 пикселей
Соотношение сторон : 16:9
Режим частоты кадров : Постоянный
Частота кадров : 25,500 кадров/сек
Цветовое пространство : YUV
Субдискретизация насыщенности : 4:2:0
Битовая глубина : 8 бит
Тип развёртки : Прогрессивная
Бит/(Пиксели*Кадры) : 0.084
Размер потока : 795 Мбайт (93%)
Библиотека кодирования : x264 core 142
Настройки программы : cabac=1 / ref=3 / deblock=1:0:0 / analyse=0x3:0x113 / me=hex / subme=7 / psy=1 / psy_rd=1.00:0.00 / mixed_ref=1 / me_range=16 / chroma_me=1 / trellis=1 / 8x8dct=1 / cqm=0 / deadzone=21,11 / fast_pskip=1 / chroma_qp_offset=-2 / threads=4 / lookahead_threads=1 / sliced_threads=0 / nr=0 / decimate=1 / interlaced=0 / bluray_compat=0 / constrained_intra=0 / bframes=3 / b_pyramid=2 / b_adapt=1 / b_bias=0 / direct=1 / weightb=1 / open_gop=0 / weightp=2 / keyint=26 / keyint_min=2 / scenecut=40 / intra_refresh=0 / rc_lookahead=26 / rc=2pass / mbtree=1 / bitrate=1980 / ratetol=1.0 / qcomp=0.60 / qpmin=0 / qpmax=69 / qpstep=4 / cplxblur=20.0 / qblur=0.5 / ip_ratio=1.40 / aq=1:1.00

Аудио
Идентификатор : 2
Формат : AAC
Формат/Информация : Advanced Audio Codec
Профиль формата : LC
Идентификатор кодека : 40
Продолжительность : 56 м.
Вид битрейта : Переменный
Битрейт : 152 Кбит/сек
Максимальный битрейт : 192 Кбит/сек
Каналы : 2 канала
Расположение каналов : Front: L R
Частота : 44,1 КГц
Метод сжатия : С потерями
Размер потока : 61,0 Мбайт (7%)

[/pre]


Последний раз редактировалось: llecha (2016-03-04 04:47), всего редактировалось 1 раз
Profile PM

llecha


Стаж: 3 года 11 месяцев

Сообщений: 271

Торрент-статистика

post 04-Мар-2016 04:43 (спустя 41 минута)

Quote


перевод говно, но ностальгии не мешает
Profile PM
Ответить на тему