20 голов, которые потрясли мир / 20 Goals That Shook The World / ITV [2011, SD, Xvid, EN, PDTVRip]

Ответить на тему

Автор Сообщение

VicJohnson


Стаж: 6 лет

Сообщений: 170

Россия

Торрент-статистика

post 22-Окт-2011 13:22

Quote


20 голов, которые потрясли мир / 20 Goals That Shook The World / ITV


Год выпуска: 2011
Вид спорта: футбол
Продолжительность: 00:45:42
Язык комментариев: английский
Участники: авторы и свидетели голов
Автор рипа: Hannibal

Канал:


Описание:
Голы, которые в свое время потрясли английскую футбольную общественносоть. Включает интервью с авторами и свидетелями этих голов.
A selection of famous and infamous goals that have gone down in footballing history for all kinds of reasons. These include Diego Maradona's two very different goals against England in the 1986 World Cup, Michael Thomas's goal that sealed the championship for Arsenal in 1989, John Barnes' solo wonder goal against Brazil in 1984, and Manchester United legend Denis Law's goal for Manchester City that relegated his old club to Division Two. Narrated by Clive Tyldesley.
Качество: PDTVRip
Формат: AVI
Видео кодек: Xvid
Аудио кодек: MPEG Audio Layer 3 (MP3)
Видео: 624x352 (16:9), 1006 Kbps, 25.00 fps
Аудио: 128 Kbps, 48000Гц, 2 chn
General
Complete name : G:\My Torrent Releases\20 Goals That Shook The World (ITV).avi
Format : AVI
Format/Info : Audio Video Interleave
File size : 374 MiB
Duration : 45mn 42s
Overall bit rate : 1 143 Kbps
Writing application : VirtualDubMod 1.5.10.2 (build 2540/release)
Writing library : VirtualDubMod build 2540/release

Video
ID : 0
Format : MPEG-4 Visual
Format profile : Advanced Simple@L5
Format settings, BVOP : 2
Format settings, QPel : No
Format settings, GMC : No warppoints
Format settings, Matrix : Default (H.263)
Muxing mode : Packed bitstream
Codec ID : XVID
Codec ID/Hint : XviD
Duration : 45mn 42s
Bit rate : 1 006 Kbps
Width : 624 pixels
Height : 352 pixels
Display aspect ratio : 16:9
Frame rate : 25.000 fps
Color space : YUV
Chroma subsampling : 4:2:0
Bit depth : 8 bits
Scan type : Progressive
Compression mode : Lossy
Bits/(Pixel*Frame) : 0.183
Stream size : 329 MiB (88%)
Writing library : XviD 1.2.1 (UTC 2008-12-04)

Audio
ID : 1
Format : MPEG Audio
Format version : Version 1
Format profile : Layer 3
Mode : Joint stereo
Mode extension : MS Stereo
Codec ID : 55
Codec ID/Hint : MP3
Duration : 45mn 42s
Bit rate mode : Constant
Bit rate : 128 Kbps
Channel(s) : 2 channels
Sampling rate : 48.0 KHz
Compression mode : Lossy
Stream size : 41.8 MiB (11%)
Alignment : Aligned on interleaves
Interleave, duration : 40 ms (1.00 video frame)
Interleave, preload duration : 504 ms
Profile PM

Ironcast


Стаж: 6 лет

Сообщений: 566

О.Святой Елены

Торрент-статистика

post 23-Окт-2011 11:14 (спустя 21 час)

Quote


Фигня, если честно.. Потрясли-- в смысле были неожиданными, а не мегасуперпупер. Голы вообще порой тупые..
Profile PM

VicJohnson


Стаж: 6 лет

Сообщений: 170

Россия

Торрент-статистика

post 23-Окт-2011 21:49 (спустя 10 часов)

Quote


Ironcast

А заголовок о чем говорит?

ПОТРЯСЛИ. ab

И не надо забывать: это АНГЛИЙСКАЯ точка зрения. ;)

_________________
Profile PM
Ответить на тему