Liverpool - Season Review 2011-12 / Ливерпуль - Обзор Сезона 2011-12 [2012, SD, H.264, EN, DVDRip]

Ответить на тему

Автор Сообщение

Compiler


Стаж: 5 лет 9 месяцев

Сообщений: 946

Россия

Торрент-статистика

post 18-Июл-2012 20:59

Quote



Продолжительность: 02:00:41
Комментарий: Профессиональный
Язык комментариев: Английский
Релиз:
Автор рипа: Compiler
Liverpool - Season Review 2011-12 / Ливерпуль - Обзор Сезона 2011-12

Format : Matroska
Format version : Version 2
File size : 2.25 GiB
Duration : 2h 0mn
Overall bit rate : 2 666 Kbps
Encoded date : UTC 2012-07-18 16:44:13
Writing application : mkvmerge v5.5.0 ('Healer') built on Apr 6 2012 21:43:24
Writing library : libebml v1.2.3 + libmatroska v1.3.0

Video
ID : 1
Format : AVC
Format/Info : Advanced Video Codec
Format profile : High_L4.1
Format settings, CABAC : Yes
Format settings, ReFrames : 9 frames
Codec ID : V_MPEG4/ISO/AVC
Duration : 2h 0mn
Bit rate : 2 421 Kbps
Width : 720 pixels
Height : 400 pixels
Display aspect ratio : 16:9
Frame rate : 25.000 fps
Color space : YUV
Chroma subsampling : 4:2:0
Bit depth : 8 bits
Scan type : Progressive
Bits/(Pixel*Frame) : 0.336
Stream size : 2.04 GiB (91%)
Writing library : x264 core 125 r2200 999b753
Encoding settings : cabac=1 / ref=9 / deblock=1:0:0 / analyse=0x3:0x133 / me=umh / subme=9 / psy=1 / psy_rd=1.00:0.00 / mixed_ref=1 / me_range=16 / chroma_me=1 / trellis=2 / 8x8dct=1 / cqm=0 / deadzone=21,11 / fast_pskip=1 / chroma_qp_offset=-2 / threads=6 / lookahead_threads=1 / sliced_threads=0 / nr=0 / decimate=1 / interlaced=0 / bluray_compat=0 / constrained_intra=0 / bframes=3 / b_pyramid=2 / b_adapt=2 / b_bias=0 / direct=3 / weightb=1 / open_gop=0 / weightp=2 / keyint=250 / keyint_min=25 / scenecut=40 / intra_refresh=0 / rc_lookahead=60 / rc=crf / mbtree=1 / crf=20.0 / qcomp=0.60 / qpmin=0 / qpmax=69 / qpstep=4 / ip_ratio=1.40 / aq=1:1.00
Language : English
Default : Yes
Forced : No

Audio
ID : 2
Format : AC-3
Format/Info : Audio Coding 3
Mode extension : CM (complete main)
Format settings, Endianness : Big
Codec ID : A_AC3
Duration : 2h 0mn
Bit rate mode : Constant
Bit rate : 192 Kbps
Channel(s) : 2 channels
Channel positions : Front: L R
Sampling rate : 48.0 KHz
Bit depth : 16 bits
Compression mode : Lossy
Stream size : 166 MiB (7%)
Language : English
Default : Yes
Forced : No

---[NoImage] raw [info]: 720x400p 1:1 @ 25/1 fps (cfr)
---[NoImage] x264 [info]: using SAR=1/1
---[NoImage] x264 [info]: using cpu capabilities: MMX2 SSE2Fast SSSE3 FastShuffle SSE4.2 AVX
---[NoImage] x264 [info]: profile High, level 4.1
---[NoImage]
---[NoImage] x264 [info]: frame I:1127 Avg QP:19.10 size: 39551
---[NoImage] x264 [info]: frame P:55888 Avg QP:22.20 size: 21763
---[NoImage] x264 [info]: frame B:124010 Avg QP:24.60 size: 7877
---[NoImage] x264 [info]: consecutive B-frames: 3.0% 8.5% 25.4% 63.1%
---[NoImage] x264 [info]: mb I I16..4: 7.5% 77.3% 15.2%
---[NoImage] x264 [info]: mb P I16..4: 3.6% 22.3% 2.9% P16..4: 37.5% 17.6% 10.6% 1.4% 0.3% skip: 3.8%
---[NoImage] x264 [info]: mb B I16..4: 0.6% 2.8% 0.4% B16..8: 43.0% 11.7% 3.3% direct:10.9% skip:27.3% L0:38.2% L1:43.8% BI:18.0%
---[NoImage] x264 [info]: 8x8 transform intra:76.8% inter:69.7%
---[NoImage] x264 [info]: direct mvs spatial:100.0% temporal:0.0%
---[NoImage] x264 [info]: coded y,uvDC,uvAC intra: 80.8% 82.2% 48.6% inter: 39.3% 36.2% 8.4%
---[NoImage] x264 [info]: i16 v,h,dc,p: 23% 38% 9% 30%
---[NoImage] x264 [info]: i8 v,h,dc,ddl,ddr,vr,hd,vl,hu: 12% 18% 8% 7% 9% 9% 13% 9% 14%
---[NoImage] x264 [info]: i4 v,h,dc,ddl,ddr,vr,hd,vl,hu: 12% 20% 4% 7% 11% 11% 13% 9% 13%
---[NoImage] x264 [info]: i8c dc,h,v,p: 28% 32% 24% 16%
---[NoImage] x264 [info]: Weighted P-Frames: Y:9.3% UV:5.7%
---[NoImage] x264 [info]: ref P L0: 54.3% 13.4% 13.7% 4.6% 3.5% 3.0% 3.5% 2.1% 1.4% 0.5% 0.0%
---[NoImage] x264 [info]: ref B L0: 86.4% 7.6% 2.6% 1.2% 0.8% 0.7% 0.6% 0.2%
---[NoImage] x264 [info]: ref B L1: 96.5% 3.5%
---[NoImage] x264 [info]: kb/s:2472.22
---[NoImage] encoded 181025 frames, 26.49 fps, 2472.22 kb/s

Качество: DVDRip
Формат: MKV
Видео кодек: H.264
Аудио кодек: AС3
Видео: 2421 kbps, 720 x 400, 25 fps
Аудио: 48.0 kHz 2 ch, 192 kbps


Последний раз редактировалось: Compiler (2012-07-21 19:25), всего редактировалось 3 раз(а)
Profile PM

John K.


Стаж: 5 лет 10 месяцев

Сообщений: 69

Откуда: Красноярск

Россия

Торрент-статистика

post 18-Июл-2012 21:09 (спустя 10 минут)

Quote


Спасибо! ))

_________________
Profile PM
Ответить на тему