Arsenal - Season Review 2011-12 / Арсенал - Обзор Сезона 2011-12 [2012, SD, H.264, EN, DVDRip]

Ответить на тему

Автор Сообщение

Compiler


Стаж: 5 лет 9 месяцев

Сообщений: 946

Россия

Торрент-статистика

post 18-Июл-2012 21:00

Quote



Продолжительность: 01:56:12
Комментарий: Профессиональный
Язык комментариев: Английский
Релиз:
Автор рипа: Compiler
Arsenal - Season Review 2011-12 / Арсенал - Обзор Сезона 2011-12

Format : Matroska
Format version : Version 2
File size : 2.22 GiB
Duration : 1h 56mn
Overall bit rate : 2 739 Kbps
Encoded date : UTC 2012-07-18 14:13:08
Writing application : mkvmerge v5.5.0 ('Healer') built on Apr 6 2012 21:43:24
Writing library : libebml v1.2.3 + libmatroska v1.3.0

Video
ID : 1
Format : AVC
Format/Info : Advanced Video Codec
Format profile : High_L4.1
Format settings, CABAC : Yes
Format settings, ReFrames : 9 frames
Codec ID : V_MPEG4/ISO/AVC
Duration : 1h 56mn
Bit rate : 2 492 Kbps
Width : 720 pixels
Height : 400 pixels
Display aspect ratio : 16:9
Frame rate : 25.000 fps
Color space : YUV
Chroma subsampling : 4:2:0
Bit depth : 8 bits
Scan type : Progressive
Bits/(Pixel*Frame) : 0.346
Stream size : 2.02 GiB (91%)
Writing library : x264 core 125 r2200 999b753
Encoding settings : cabac=1 / ref=9 / deblock=1:0:0 / analyse=0x3:0x133 / me=umh / subme=9 / psy=1 / psy_rd=1.00:0.00 / mixed_ref=1 / me_range=16 / chroma_me=1 / trellis=2 / 8x8dct=1 / cqm=0 / deadzone=21,11 / fast_pskip=1 / chroma_qp_offset=-2 / threads=6 / lookahead_threads=1 / sliced_threads=0 / nr=0 / decimate=1 / interlaced=0 / bluray_compat=0 / constrained_intra=0 / bframes=3 / b_pyramid=2 / b_adapt=2 / b_bias=0 / direct=3 / weightb=1 / open_gop=0 / weightp=2 / keyint=250 / keyint_min=25 / scenecut=40 / intra_refresh=0 / rc_lookahead=60 / rc=crf / mbtree=1 / crf=20.0 / qcomp=0.60 / qpmin=0 / qpmax=69 / qpstep=4 / ip_ratio=1.40 / aq=1:1.00
Language : English
Default : Yes
Forced : No

Audio
ID : 2
Format : AC-3
Format/Info : Audio Coding 3
Mode extension : CM (complete main)
Format settings, Endianness : Big
Codec ID : A_AC3
Duration : 1h 56mn
Bit rate mode : Constant
Bit rate : 192 Kbps
Channel(s) : 2 channels
Channel positions : Front: L R
Sampling rate : 48.0 KHz
Bit depth : 16 bits
Compression mode : Lossy
Stream size : 160 MiB (7%)
Language : English
Default : Yes
Forced : No

---[NoImage] raw [info]: 720x400p 1:1 @ 25/1 fps (cfr)
---[NoImage] x264 [info]: using SAR=1/1
---[NoImage] x264 [info]: using cpu capabilities: MMX2 SSE2Fast SSSE3 FastShuffle SSE4.2 AVX
---[NoImage] x264 [info]: profile High, level 4.1
---[NoImage]
---[NoImage] x264 [info]: frame I:1038 Avg QP:19.42 size: 40374
---[NoImage] x264 [info]: frame P:54135 Avg QP:22.41 size: 22048
---[NoImage] x264 [info]: frame B:119127 Avg QP:24.81 size: 8248
---[NoImage] x264 [info]: consecutive B-frames: 3.0% 8.9% 26.0% 62.1%
---[NoImage] x264 [info]: mb I I16..4: 7.7% 75.8% 16.5%
---[NoImage] x264 [info]: mb P I16..4: 3.7% 23.3% 3.3% P16..4: 36.7% 17.7% 10.3% 1.4% 0.3% skip: 3.5%
---[NoImage] x264 [info]: mb B I16..4: 0.6% 2.9% 0.5% B16..8: 43.2% 12.2% 3.4% direct:11.3% skip:25.9% L0:38.0% L1:43.6% BI:18.4%
---[NoImage] x264 [info]: 8x8 transform intra:76.2% inter:69.3%
---[NoImage] x264 [info]: direct mvs spatial:100.0% temporal:0.0%
---[NoImage] x264 [info]: coded y,uvDC,uvAC intra: 81.3% 82.1% 48.8% inter: 40.4% 37.1% 9.1%
---[NoImage] x264 [info]: i16 v,h,dc,p: 24% 39% 8% 29%
---[NoImage] x264 [info]: i8 v,h,dc,ddl,ddr,vr,hd,vl,hu: 11% 19% 7% 7% 10% 9% 13% 9% 14%
---[NoImage] x264 [info]: i4 v,h,dc,ddl,ddr,vr,hd,vl,hu: 11% 22% 4% 7% 10% 11% 13% 9% 14%
---[NoImage] x264 [info]: i8c dc,h,v,p: 28% 33% 23% 16%
---[NoImage] x264 [info]: Weighted P-Frames: Y:9.8% UV:6.5%
---[NoImage] x264 [info]: ref P L0: 53.6% 13.6% 13.9% 4.8% 3.6% 3.0% 3.5% 2.1% 1.5% 0.5% 0.0%
---[NoImage] x264 [info]: ref B L0: 86.4% 7.6% 2.6% 1.2% 0.8% 0.7% 0.6% 0.2%
---[NoImage] x264 [info]: ref B L1: 96.5% 3.5%
---[NoImage] x264 [info]: kb/s:2545.11
---[NoImage] encoded 174300 frames, 26.06 fps, 2545.11 kb/s

Качество: DVDRip
Формат: MKV
Видео кодек: H.264
Аудио кодек: AС3
Видео: 2492 kbps, 720 x 400, 25 fps
Аудио: 48.0 kHz 2 ch, 192 kbps


Последний раз редактировалось: Compiler (2012-07-21 19:25), всего редактировалось 1 раз
Profile PM

diplomat


Стаж: 6 лет

Сообщений: 3

Откуда: Chisinau

Молдавия

Торрент-статистика

post 18-Июл-2012 21:31 (спустя 30 минут)

Quote


I need DVD5 )
Profile PM
Ответить на тему