Manchester City - Season Review 2011-12 / Манчестер Сити - Обзор Сезона 2011-12 [2012, SD, H.264, EN, DVDRip]

Ответить на тему

Автор Сообщение

Compiler


Стаж: 5 лет 9 месяцев

Сообщений: 946

Россия

Торрент-статистика

post 21-Июл-2012 19:22

Quote



Продолжительность: 03:07:56
Комментарий: Профессиональный
Язык комментариев: Английский
Релиз:
Автор рипа: Compiler
Manchester City - Season Review 2011-12 / Манчестер Сити - Обзор Сезона 2011-12

Format : Matroska
Format version : Version 2
File size : 2.78 GiB
Duration : 3h 7mn
Overall bit rate : 2 114 Kbps
Encoded date : UTC 2012-07-21 15:11:24
Writing application : mkvmerge v5.5.0 ('Healer') built on Apr 6 2012 21:43:24
Writing library : libebml v1.2.3 + libmatroska v1.3.0

Video
ID : 1
Format : AVC
Format/Info : Advanced Video Codec
Format profile : High_L4.1
Format settings, CABAC : Yes
Format settings, ReFrames : 9 frames
Codec ID : V_MPEG4/ISO/AVC
Duration : 3h 7mn
Bit rate : 1 848 Kbps
Width : 720 pixels
Height : 400 pixels
Display aspect ratio : 16:9
Frame rate : 25.000 fps
Color space : YUV
Chroma subsampling : 4:2:0
Bit depth : 8 bits
Scan type : Progressive
Bits/(Pixel*Frame) : 0.257
Stream size : 2.43 GiB (87%)
Writing library : x264 core 125 r2200 999b753
Encoding settings : cabac=1 / ref=9 / deblock=1:0:0 / analyse=0x3:0x133 / me=umh / subme=9 / psy=1 / psy_rd=1.00:0.00 / mixed_ref=1 / me_range=16 / chroma_me=1 / trellis=2 / 8x8dct=1 / cqm=0 / deadzone=21,11 / fast_pskip=1 / chroma_qp_offset=-2 / threads=6 / lookahead_threads=1 / sliced_threads=0 / nr=0 / decimate=1 / interlaced=0 / bluray_compat=0 / constrained_intra=0 / bframes=3 / b_pyramid=2 / b_adapt=2 / b_bias=0 / direct=3 / weightb=1 / open_gop=0 / weightp=2 / keyint=250 / keyint_min=25 / scenecut=40 / intra_refresh=0 / rc_lookahead=60 / rc=crf / mbtree=1 / crf=20.0 / qcomp=0.60 / qpmin=0 / qpmax=69 / qpstep=4 / ip_ratio=1.40 / aq=1:1.00
Language : English
Default : Yes
Forced : No

Audio
ID : 2
Format : AC-3
Format/Info : Audio Coding 3
Mode extension : CM (complete main)
Format settings, Endianness : Big
Codec ID : A_AC3
Duration : 3h 7mn
Bit rate mode : Constant
Bit rate : 224 Kbps
Channel(s) : 2 channels
Channel positions : Front: L R
Sampling rate : 48.0 KHz
Bit depth : 16 bits
Compression mode : Lossy
Stream size : 301 MiB (11%)
Language : English
Default : Yes
Forced : No

---[NoImage] raw [info]: 720x400p 1:1 @ 25/1 fps (cfr)
---[NoImage] x264 [info]: using SAR=1/1
---[NoImage] x264 [info]: using cpu capabilities: MMX2 SSE2Fast SSSE3 FastShuffle SSE4.2 AVX
---[NoImage] x264 [info]: profile High, level 4.1
---[NoImage]
---[NoImage] x264 [info]: frame I:1855 Avg QP:18.16 size: 42040
---[NoImage] x264 [info]: frame P:87689 Avg QP:21.40 size: 17317
---[NoImage] x264 [info]: frame B:192356 Avg QP:24.98 size: 5537
---[NoImage] x264 [info]: consecutive B-frames: 3.2% 7.1% 31.1% 58.6%
---[NoImage] x264 [info]: mb I I16..4: 8.1% 73.8% 18.0%
---[NoImage] x264 [info]: mb P I16..4: 2.5% 17.4% 2.2% P16..4: 37.2% 17.2% 11.9% 1.5% 0.4% skip: 9.6%
---[NoImage] x264 [info]: mb B I16..4: 0.4% 2.2% 0.3% B16..8: 40.4% 11.1% 3.0% direct: 7.0% skip:35.6% L0:37.9% L1:44.0% BI:18.1%
---[NoImage] x264 [info]: 8x8 transform intra:78.0% inter:65.1%
---[NoImage] x264 [info]: direct mvs spatial:100.0% temporal:0.0%
---[NoImage] x264 [info]: coded y,uvDC,uvAC intra: 81.3% 81.1% 43.9% inter: 30.0% 25.6% 5.3%
---[NoImage] x264 [info]: i16 v,h,dc,p: 28% 36% 12% 24%
---[NoImage] x264 [info]: i8 v,h,dc,ddl,ddr,vr,hd,vl,hu: 10% 23% 11% 7% 8% 8% 11% 9% 13%
---[NoImage] x264 [info]: i4 v,h,dc,ddl,ddr,vr,hd,vl,hu: 11% 21% 5% 7% 10% 11% 12% 9% 13%
---[NoImage] x264 [info]: i8c dc,h,v,p: 32% 34% 21% 14%
---[NoImage] x264 [info]: Weighted P-Frames: Y:4.6% UV:2.1%
---[NoImage] x264 [info]: ref P L0: 55.3% 14.6% 13.7% 4.0% 3.4% 2.9% 2.5% 1.6% 1.5% 0.5% 0.0%
---[NoImage] x264 [info]: ref B L0: 86.1% 8.0% 2.4% 1.1% 0.9% 0.7% 0.5% 0.2%
---[NoImage] x264 [info]: ref B L1: 94.6% 5.4%
---[NoImage] x264 [info]: kb/s:1888.32
---[NoImage] encoded 281900 frames, 30.81 fps, 1888.32 kb/s

Качество: DVDRip
Формат: MKV
Видео кодек: H.264
Аудио кодек: AС3
Видео: 1848 kbps, 720 x 400, 25 fps
Аудио: 48.0 kHz 2 ch, 224 kbps
Profile PM

alexx59


Стаж: 4 года 1 месяц

Сообщений: 7

Откуда: Калининград

Россия

Торрент-статистика

post 09-Янв-2013 17:51 (спустя 5 месяцев 18 дней)

Quote


Добрый день. Осталось докачать 3%.Встаньте, пожалуйста, на раздачу. СПАСИБО!
Profile PM
Ответить на тему