Енциклопедія Футболу / Энциклопедия Футбола [2013, Футбол, Документальный, DVB by Динмілчел]

Ответить на тему

Автор Сообщение

Динмілчел


Стаж: 6 лет

Сообщений: 10

Украина

Торрент-статистика

post 18-Апр-2013 02:30

Quote



Энциклопедия Футбола

Год выпуска : 2013
Вид спорта : Футбол
Страна : Украина
Жанр : Документальный
Язык : Украинский
Продолжительность : ~ 00:00:25
Описание: Проект "Енциклопедія Футболу" изготовлен украинским каналом "Футбол", в каждом новом ролике рассказываеться о самых интересных событиях и фактах в мире футбола !!!
Релиз специально для
General
Complete name : 01 - Анрі Делоне.mpg
Format : MPEG-PS
File size : 16.8 MiB
Duration : 24s 960ms
Overall bit rate mode : Variable
Overall bit rate : 5 631 Kbps
Video #224
ID : 224 (0xE0)
Format : MPEG Video
Format version : Version 2
Format profile : Main@Main
Format settings, BVOP : Yes
Format settings, Matrix : Custom
Format settings, GOP : M=4, N=32
Duration : 24s 960ms
Bit rate mode : Variable
Bit rate : 5 263 Kbps
Maximum bit rate : 15.0 Mbps
Width : 720 pixels
Height : 576 pixels
Display aspect ratio : 16:9
Frame rate : 25.000 fps
Standard : PAL
Color space : YUV
Chroma subsampling : 4:2:0
Bit depth : 8 bits
Scan type : Interlaced
Scan order : Top Field First
Compression mode : Lossy
Bits/(Pixel*Frame) : 0.508
Stream size : 15.7 MiB (93%)
Audio #192
ID : 192 (0xC0)
Format : MPEG Audio
Format version : Version 1
Format profile : Layer 2
Duration : 24s 960ms
Bit rate mode : Constant
Bit rate : 256 Kbps
Channel(s) : 2 channels
Sampling rate : 48.0 KHz
Compression mode : Lossy
Stream size : 780 KiB (5%)
Качество видео: DVB
Формат видео: MPEG
Видео кодек: MPEG2
Аудио кодек: MPEG1
Видео: MPEG2 Video 720x576 @ 1024x576 (16:9) 25.00fps 5 263 Kbps, 0.508 bit/pixel
Аудио: MPEG Audio 48000Hz 2 channels 256 Kbps


Profile PM
Ответить на тему