Суперкубок УЕФА 2016 / Реал Мадрид (Мадрид, Испания) – Севилья (Севилья, Испания) / Bein Sports España HD [09.08.2016, 720p, x264, ES, WEB-DL]

Ответить на тему

Автор Сообщение

bessiaeb


Стаж: 7 лет 4 месяца

Сообщений: 74

Откуда: Kosovo

Албания

Торрент-статистика

post 10-Авг-2016 02:59

Quote


UEFA Supercup Real Madrid vs Sevilla 720p BEIN SPORTS ESPANA WEB-DL x264-iNTERMEDiA

Sport: Football
Competition: UEFA Super Cup
Round: N/A
Date: 2016 08 09 20:45 (CET)
Channel: Bein Sports España
Runtime: Check Mediainfo

Filename: 20160809 UEFA Supercup Real Madrid vs Sevilla 720p BEIN SPORTS ESPANA WEB-DL x264-iNTERMEDiA.mkv
Filesize: 2.98 GB
Source: WEB-DL
Video Codec: H264/AVC
Audio Codec: AAC
Video info: 1280x720(16:9), 25fps, 2200 kbps
Audio info: 48 kHz, 2 channels, 96 kbps
Audio language: Español
NOTE: Includes halftime report, extra time(if needed) and trophy presentation.

Код:

General
Unique ID                   : 209458540979972218322559297016830862227 (0x9D943F63E654DE839302E362102BA393)
Complete name               : D:\Movies & TV Shows\Captures\20160809 UEFA Supercup Real Madrid vs Sevilla 720p BEIN SPORTS ESPANA WEB-DL x264-iNTERMEDiA.mkv
Format                      : Matroska
Format version              : Version 4 / Version 2
File size                   : 2.98 GiB
Duration                    : 3h 3mn
Overall bit rate            : 2 326 Kbps
Encoded date                : UTC 2016-08-09 22:25:17
Writing application         : mkvmerge v8.3.0 ('Over the Horizon') 32bit
Writing library             : libebml v1.3.1 + libmatroska v1.4.2

Video
ID                          : 2
Format                      : AVC
Format/Info                 : Advanced Video Codec
Format profile              : High@L3.1
Format settings, CABAC      : Yes
Format settings, ReFrames   : 4 frames
Codec ID                    : V_MPEG4/ISO/AVC
Duration                    : 3h 3mn
Bit rate                    : 2 200 Kbps
Width                       : 1 280 pixels
Height                      : 720 pixels
Display aspect ratio        : 16:9
Frame rate mode             : Constant
Frame rate                  : 25.000 fps
Color space                 : YUV
Chroma subsampling          : 4:2:0
Bit depth                   : 8 bits
Scan type                   : Progressive
Bits/(Pixel*Frame)          : 0.095
Stream size                 : 2.85 GiB (96%)
Writing library             : x264 core 115 r2013 6fce39a
Encoding settings           : cabac=1 / ref=1 / deblock=1:1:1 / analyse=0x3:0x13 / me=hex / subme=2 / psy=1 / psy_rd=0.40:0.00 / mixed_ref=0 / me_range=16 / chroma_me=1 / trellis=0 / 8x8dct=1 / cqm=0 / deadzone=21,11 / fast_pskip=1 / chroma_qp_offset=0 / threads=12 / sliced_threads=0 / nr=0 / decimate=1 / interlaced=0 / bluray_compat=0 / constrained_intra=0 / bframes=5 / b_pyramid=2 / b_adapt=1 / b_bias=0 / direct=1 / weightb=1 / open_gop=0 / weightp=1 / keyint=250 / keyint_min=25 / scenecut=40 / intra_refresh=0 / rc_lookahead=10 / rc=cbr / mbtree=1 / bitrate=2200 / ratetol=1.0 / qcomp=0.60 / qpmin=10 / qpmax=51 / qpstep=4 / vbv_maxrate=2200 / vbv_bufsize=8000 / nal_hrd=none / ip_ratio=1.40 / aq=1:0.60
Default                     : Yes
Forced                      : No

Audio
ID                          : 1
Format                      : MPEG Audio
Format version              : Version 1
Format profile              : Layer 3
Mode                        : Joint stereo
Mode extension              : MS Stereo
Codec ID                    : A_MPEG/L3
Codec ID/Hint               : MP3
Duration                    : 3h 3mn
Bit rate mode               : Constant
Bit rate                    : 96.0 Kbps
Channel(s)                  : 2 channels
Sampling rate               : 44.1 KHz
Frame rate                  : 38.254 fps (1153 spf)
Compression mode            : Lossy
Delay relative to video     : -25ms
Stream size                 : 126 MiB (4%)
Language                    : Spanish
Default                     : Yes
Forced                      : No
3-2
Profile PM

2013l


Стаж: 2 года 6 месяцев

Сообщений: 231

Торрент-статистика

post 10-Авг-2016 03:09 (спустя 9 минут)

Quote


Спасибо за игру на Испанском.
Profile PM
Ответить на тему