Суперкубок УЕФА 2016 / Реал Мадрид (Мадрид, Испания) – Севилья (Севилья, Испания) / Fox Sports HD [09.08.2016, 720p, x264, EN, WEB-DL]

Ответить на тему

Автор Сообщение

bessiaeb


Стаж: 7 лет 10 месяцев

Сообщений: 74

Откуда: Kosovo

Албания

Торрент-статистика

post 10-Авг-2016 06:03

Quote


UEFA Supercup Real Madrid vs Sevilla 720p Fox Sports WEB-DL x264-iNTERMEDiA

Sport: Football
Competition: UEFA Super Cup
Round: N/A
Date: 2016 08 09 20:45 (CET)
Channel: Fox Sports 1 HD
Runtime: Check Mediainfo

Filename: 20160809 UEFA Supercup Real Madrid vs Sevilla 720p Fox Sports WEB-DL x264-iNTERMEDiA.mkv
Filesize: 2.38 GB
Source: WEB-DL
Video Codec: H264/AVC
Audio Codec: AAC
Video info: 1280x720(16:9), 25fps, 2200 kbps
Audio info: 48 kHz, 2 channels, 96 kbps
Audio language: English
NOTE: Includes halftime report, extra time(if needed) and trophy presentation.

Screens

Код:

General
Unique ID                   : 251460458388544870270783024558944482485 (0xBD2D85CD4E8DAC159C7F21A16D82F4B5)
Complete name               : D:\Movies & TV Shows\Captures\20160809 UEFA Supercup Real Madrid vs Sevilla 720p Fox Sports WEB-DL x264-iNTERMEDiA.mkv
Format                      : Matroska
Format version              : Version 4 / Version 2
File size                   : 2.38 GiB
Duration                    : 2h 29mn
Overall bit rate            : 2 276 Kbps
Encoded date                : UTC 2016-08-10 01:01:54
Writing application         : mkvmerge v8.3.0 ('Over the Horizon') 32bit
Writing library             : libebml v1.3.1 + libmatroska v1.4.2

Video
ID                          : 2
Format                      : AVC
Format/Info                 : Advanced Video Codec
Format profile              : High@L3.1
Format settings, CABAC      : Yes
Format settings, ReFrames   : 4 frames
Codec ID                    : V_MPEG4/ISO/AVC
Duration                    : 2h 29mn
Bit rate                    : 2 178 Kbps
Width                       : 1 280 pixels
Height                      : 720 pixels
Display aspect ratio        : 16:9
Frame rate mode             : Constant
Frame rate                  : 29.970 (30000/1001) fps
Original frame rate         : 29.970 (29970/1000) fps
Color space                 : YUV
Chroma subsampling          : 4:2:0
Bit depth                   : 8 bits
Scan type                   : Progressive
Bits/(Pixel*Frame)          : 0.079
Stream size                 : 2.28 GiB (96%)
Default                     : Yes
Forced                      : No

Audio
ID                          : 1
Format                      : MPEG Audio
Format version              : Version 1
Format profile              : Layer 3
Mode                        : Joint stereo
Mode extension              : MS Stereo
Codec ID                    : A_MPEG/L3
Codec ID/Hint               : MP3
Duration                    : 2h 29mn
Bit rate mode               : Constant
Bit rate                    : 96.0 Kbps
Channel(s)                  : 2 channels
Sampling rate               : 44.1 KHz
Frame rate                  : 38.281 fps (1152 spf)
Compression mode            : Lossy
Delay relative to video     : -8ms
Stream size                 : 103 MiB (4%)
Default                     : Yes
Forced                      : No
3-2
Profile PM
Ответить на тему