Чемпионат Испании 2014-15 / Liga Adelante / 22-й тур / Planta Segunda / Обзор матчей / Canal+ Liga HD [27.01.2015, H.264, 1080i, SP, HDTV, SAT]

Ответить на тему

Автор Сообщение

K. Valera


Стаж: 4 года 7 месяцев

Сообщений: 781

Украина

Торрент-статистика

post 30-Янв-2015 14:36

Quote


Чемпионат Испании 2014-15 / Liga Adelante / 22-й тур / Planta Segunda / Обзор матчей / Canal+ Liga HD

Год выпуска: 27.01.2015
Вид спорта: Футбол
Релиз: rgfootball.net
Aвтор рипа: K. Valera
Продолжительность: *
Комментарий: Профессиональный
Язык комментариев: Испанский
Канал:
Качество: HDTV / Формат: *.ts / Видео Кодек: AVC / Аудио Кодек: AC-3, MPEG
Видео: 1920x1080 (16/9), 25,000 fps, 11.5 Мбит/сек
Аудио 1: 192 Kbps, 48 KHz, Dolby AC3 2.0 channels, CBR (Spanish)
Аудио 2: 192 Kbps, 48 KHz, Dolby AC3 2.0 channels, CBR (qaa)
Аудио 3: 153 Kbps, 48 KHz, MPEG mp2 1.0 channels, CBR
Аудио 4: 149 Kbps, 48 KHz, MPEG mp2 1.0 channels, CBR
Запись видео: Openbox SX6 HD
Программа корректировки видео: Cypheros TS-Doctor ver. 1.2.22

Код:

General
ID                             : 1050 (0x41A)
Complete name                  : E:\Чемпионат Испании 2014-15 Liga Adelante 22-й тур Planta Segunda Canal+ Liga HD\PLANTA SEGUNDA.ts
Format                         : MPEG-TS
File size                      : 3.29 GiB
Duration                       : 40mn 58s
Overall bit rate mode          : Variable
Overall bit rate               : 11.5 Mbps

Video
ID                             : 162 (0xA2)
Menu ID                        : 30802 (0x7852)
Format                         : AVC
Format/Info                    : Advanced Video Codec
Format profile                 : High@L4.0
Format settings, CABAC         : Yes
Format settings, ReFrames      : 4 frames
Codec ID                       : 27
Duration                       : 40mn 43s
Bit rate                       : 10.2 Mbps
Width                          : 1 920 pixels
Height                         : 1 080 pixels
Display aspect ratio           : 16:9
Frame rate                     : 25.000 fps
Color space                    : YUV
Chroma subsampling             : 4:2:0
Bit depth                      : 8 bits
Scan type                      : MBAFF
Scan order                     : Top Field First
Bits/(Pixel*Frame)             : 0.197
Stream size                    : 2.91 GiB (88%)
Encryption                     : Nagravision
Color primaries                : BT.709
Transfer characteristics       : BT.709
Matrix coefficients            : BT.709

Audio #1
ID                             : 92 (0x5C)
Menu ID                        : 30802 (0x7852)
Format                         : AC-3
Format/Info                    : Audio Coding 3
Mode extension                 : CM (complete main)
Format settings, Endianness    : Big
Codec ID                       : 6
Duration                       : 40mn 43s
Bit rate mode                  : Constant
Bit rate                       : 192 Kbps
Channel(s)                     : 2 channels
Channel positions              : Front: L R
Sampling rate                  : 48.0 KHz
Bit depth                      : 16 bits
Compression mode               : Lossy
Delay relative to video        : -959ms
Stream size                    : 55.9 MiB (2%)
Language                       : Spanish
Encryption                     : Nagravision

Audio #2
ID                             : 93 (0x5D)
Menu ID                        : 30802 (0x7852)
Format                         : AC-3
Format/Info                    : Audio Coding 3
Mode extension                 : CM (complete main)
Format settings, Endianness    : Big
Codec ID                       : 6
Duration                       : 40mn 43s
Bit rate mode                  : Constant
Bit rate                       : 192 Kbps
Channel(s)                     : 2 channels
Channel positions              : Front: L R
Sampling rate                  : 48.0 KHz
Bit depth                      : 16 bits
Compression mode               : Lossy
Delay relative to video        : -919ms
Stream size                    : 55.9 MiB (2%)
Language                       : qaa
Encryption                     : Nagravision

Audio #3
ID                             : 94 (0x5E)
Menu ID                        : 30802 (0x7852)
Format                         : MPEG Audio
Format version                 : Version 1
Format profile                 : Layer 2
Codec ID                       : 4
Duration                       : 40mn 43s
Bit rate mode                  : Constant
Bit rate                       : 160 Kbps
Channel(s)                     : 1 channel
Sampling rate                  : 48.0 KHz
Compression mode               : Lossy
Delay relative to video        : -938ms
Stream size                    : 46.6 MiB (1%)
Encryption                     : Nagravision

Audio #4
ID                             : 95 (0x5F)
Menu ID                        : 30802 (0x7852)
Format                         : MPEG Audio
Format version                 : Version 1
Format profile                 : Layer 2
Codec ID                       : 4
Duration                       : 40mn 43s
Bit rate mode                  : Constant
Bit rate                       : 160 Kbps
Channel(s)                     : 1 channel
Sampling rate                  : 48.0 KHz
Compression mode               : Lossy
Delay relative to video        : -866ms
Stream size                    : 46.6 MiB (1%)
Encryption                     : Nagravision
<< 00:40:44 >>

_________________
webmoney: R102437980674, U865336828210, Bitcoin: 1C5RGE4438bq3VfVUEfcw63rmYrb6Sgr29. Файлы не конвертирую. Готов реанимировать почти все свои раздачи.
Profile PM

Danny-84


Стаж: 4 года 7 месяцев

Сообщений: 69

Россия

Торрент-статистика

post 08-Фев-2015 18:48 (спустя 9 дней)

Quote


Спасибо большое!!!Если можете по возможности выкладывайте пожалуйста обзоры Сегунды.
Profile PM

K. Valera


Стаж: 4 года 7 месяцев

Сообщений: 781

Украина

Торрент-статистика

post 08-Фев-2015 19:34 (спустя 45 минут)

Quote


Пожалуйста. Если есть интерес буду выкладывать, по возможности. Только, вижу мало кому оно надо, да и все с раздачи быстро сваливают. Есть такая секта:

_________________
webmoney: R102437980674, U865336828210, Bitcoin: 1C5RGE4438bq3VfVUEfcw63rmYrb6Sgr29. Файлы не конвертирую. Готов реанимировать почти все свои раздачи.
Profile PM

Danny-84


Стаж: 4 года 7 месяцев

Сообщений: 69

Россия

Торрент-статистика

post 08-Фев-2015 22:11 (спустя 2 часа 37 минут)

Quote


Постараюсь по возможности оставаться на раздаче,как можно дольше...
Profile PM

K. Valera


Стаж: 4 года 7 месяцев

Сообщений: 781

Украина

Торрент-статистика

post 08-Фев-2015 23:11 (спустя 59 минут)

Quote


Спасибо за поддержку! Завтра постараюсь сделать:

Но выложу позже. Время, бытовуха, малый объём хард диска.

_________________
webmoney: R102437980674, U865336828210, Bitcoin: 1C5RGE4438bq3VfVUEfcw63rmYrb6Sgr29. Файлы не конвертирую. Готов реанимировать почти все свои раздачи.
Profile PM
Ответить на тему