Чемпионат Испании 2014-15 / Especial Liga. Torres, el retorno de "El Niño"/ Торрес, возвращение "Эль-Ниньо" / Canal+ Liga HD [06.02.2015, H.264, 1080i, SP, HDTV, SAT]

Ответить на тему

Автор Сообщение

K. Valera


Стаж: 4 года 7 месяцев

Сообщений: 781

Украина

Торрент-статистика

post 06-Фев-2015 23:47

Quote


Especial Liga. Torres, el retorno de "El Niño"/ Торрес, возвращение "Эль-Ниньо" / Canal+ Liga HD

Год выпуска: 06.02.2015
Вид спорта: Футбол
Релиз: rgfootball.net
Aвтор рипа: K. Valera
Продолжительность: *
Комментарий: Профессиональный
Язык комментариев: Испанский
Канал:
Качество: HDTV / Формат: *.ts / Видео Кодек: AVC / Аудио Кодек: AC-3, MPEG
Видео: 1920x1080 (16/9), 25,000 fps, 12.6 Мбит/сек
Аудио 1: 192 Kbps, 48 KHz, Dolby AC3 2.0 channels, CBR (Spanish)
Аудио 2: 192 Kbps, 48 KHz, Dolby AC3 2.0 channels, CBR (qaa)
Аудио 3: 153 Kbps, 48 KHz, MPEG mp2 1.0 channels, CBR
Аудио 4: 149 Kbps, 48 KHz, MPEG mp2 1.0 channels, CBR
Запись видео: Openbox SX6 HD
Программа корректировки видео: Cypheros TS-Doctor ver. 1.2.22

Argumento:
Fernando Torres, el ídolo del Atlético, ha vuelto al Calderón siete años después y lo hace para quedarse. Su llegada al Manzanares es la motivación y el reto que le faltaba en su carrera.

Код:

General
ID                             : 1050 (0x41A)
Complete name                  : D:\Видео\TORRES EL RETORNO DE EL NIÑO.ts
Format                         : MPEG-TS
File size                      : 2.20 GiB
Duration                       : 25mn 3s
Overall bit rate mode          : Variable
Overall bit rate               : 12.6 Mbps

Video
ID                             : 162 (0xA2)
Menu ID                        : 30802 (0x7852)
Format                         : AVC
Format/Info                    : Advanced Video Codec
Format profile                 : High@L4.0
Format settings, CABAC         : Yes
Format settings, ReFrames      : 4 frames
Format settings, GOP           : M=8, N=24
Codec ID                       : 27
Duration                       : 25mn 3s
Bit rate                       : 11.2 Mbps
Width                          : 1 920 pixels
Height                         : 1 080 pixels
Display aspect ratio           : 16:9
Frame rate                     : 25.000 fps
Color space                    : YUV
Chroma subsampling             : 4:2:0
Bit depth                      : 8 bits
Scan type                      : MBAFF
Scan order                     : Top Field First
Bits/(Pixel*Frame)             : 0.217
Stream size                    : 1.96 GiB (89%)
Encryption                     : Nagravision
Color primaries                : BT.709
Transfer characteristics       : BT.709
Matrix coefficients            : BT.709
Color range                    : Limited

Audio #1
ID                             : 92 (0x5C)
Menu ID                        : 30802 (0x7852)
Format                         : AC-3
Format/Info                    : Audio Coding 3
Mode extension                 : CM (complete main)
Format settings, Endianness    : Big
Codec ID                       : 6
Duration                       : 25mn 2s
Bit rate mode                  : Constant
Bit rate                       : 192 Kbps
Channel(s)                     : 2 channels
Channel positions              : Front: L R
Sampling rate                  : 48.0 KHz
Bit depth                      : 16 bits
Compression mode               : Lossy
Delay relative to video        : 24ms
Stream size                    : 34.4 MiB (2%)
Language                       : Spanish
Encryption                     : Nagravision

Audio #2
ID                             : 93 (0x5D)
Menu ID                        : 30802 (0x7852)
Format                         : AC-3
Format/Info                    : Audio Coding 3
Mode extension                 : CM (complete main)
Format settings, Endianness    : Big
Codec ID                       : 6
Duration                       : 25mn 2s
Bit rate mode                  : Constant
Bit rate                       : 192 Kbps
Channel(s)                     : 2 channels
Channel positions              : Front: L R
Sampling rate                  : 48.0 KHz
Bit depth                      : 16 bits
Compression mode               : Lossy
Stream size                    : 34.4 MiB (2%)
Language                       : qaa
Encryption                     : Nagravision

Audio #3
ID                             : 94 (0x5E)
Menu ID                        : 30802 (0x7852)
Format                         : MPEG Audio
Format version                 : Version 1
Format profile                 : Layer 2
Codec ID                       : 4
Duration                       : 25mn 2s
Bit rate mode                  : Constant
Bit rate                       : 160 Kbps
Channel(s)                     : 1 channel
Sampling rate                  : 48.0 KHz
Compression mode               : Lossy
Delay relative to video        : 76ms
Stream size                    : 28.7 MiB (1%)
Encryption                     : Nagravision

Audio #4
ID                             : 95 (0x5F)
Menu ID                        : 30802 (0x7852)
Format                         : MPEG Audio
Format version                 : Version 1
Format profile                 : Layer 2
Codec ID                       : 4
Duration                       : 25mn 2s
Bit rate mode                  : Constant
Bit rate                       : 160 Kbps
Channel(s)                     : 1 channel
Sampling rate                  : 48.0 KHz
Compression mode               : Lossy
Delay relative to video        : 148ms
Stream size                    : 28.7 MiB (1%)
Encryption                     : Nagravision
<< 00:25:03 >>

_________________
webmoney: R102437980674, U865336828210, Bitcoin: 1C5RGE4438bq3VfVUEfcw63rmYrb6Sgr29. Файлы не конвертирую. Готов реанимировать почти все свои раздачи.
Profile PM
Ответить на тему