Especial Liga. Messi - CR7, la competencia perfecta / Canal+ Liga HD [22.03.2015, 1080i, H.264, SP, HDTV, SAT]

Ответить на тему

Автор Сообщение

K. Valera


Стаж: 4 года 7 месяцев

Сообщений: 781

Украина

Торрент-статистика

post 22-Мар-2015 12:26

Quote


Especial Liga. Messi - CR7, la competencia perfecta / C+ Liga HD

Год выпуска: 22.03.2015
Вид спорта: Футбол
Релиз: rgfootball.net
Aвтор рипа: K. Valera
Продолжительность: 00:23:15
Комментарий: Профессиональный
Язык комментариев: Испанский
Канал:
Качество: HDTV / Формат: *.ts Видео
Видео Кодек: AVC
Аудио Кодек: MPEG, AC-3
Видео: 1920x1080 (16/9), 25,000 fps, 11.0 Mbps
Аудио 1: 192 Kbps, 48 KHz, Dolby AC3 2.0 channels, CBR (Spanish)
Аудио 2: 192 Kbps, 48 KHz, Dolby AC3 2.0 channels, CBR (qaa) (Spanish)
Аудио 3: 160 Kbps, 48 KHz, MPEG mp2 1.0 channels, CBR (----)
Аудио 4: 160 Kbps, 48 KHz, MPEG mp2 1.0 channels, CBR (----)
Запись видео: Openbox SX6 HD
Программа корректировки видео: Cypheros TS-Doctor ver. 1.2.22

Код:

General
ID                             : 1050 (0x41A)
Complete name                  : E:\Especial Liga Messi - CR7, la competencia perfecta C+ LIGA HD.ts
Format                         : MPEG-TS
File size                      : 2.00 GiB
Duration                       : 23mn 14s
Overall bit rate mode          : Variable
Overall bit rate               : 12.3 Mbps

Video
ID                             : 162 (0xA2)
Menu ID                        : 30802 (0x7852)
Format                         : AVC
Format/Info                    : Advanced Video Codec
Format profile                 : High@L4.0
Format settings, CABAC         : Yes
Format settings, ReFrames      : 4 frames
Codec ID                       : 27
Duration                       : 23mn 13s
Bit rate                       : 11.0 Mbps
Width                          : 1 920 pixels
Height                         : 1 080 pixels
Display aspect ratio           : 16:9
Frame rate                     : 25.000 fps
Color space                    : YUV
Chroma subsampling             : 4:2:0
Bit depth                      : 8 bits
Scan type                      : MBAFF
Scan order                     : Top Field First
Bits/(Pixel*Frame)             : 0.212
Stream size                    : 1.79 GiB (89%)
Encryption                     : Nagravision
Color primaries                : BT.709
Transfer characteristics       : BT.709
Matrix coefficients            : BT.709
Color range                    : Limited

Audio #1
ID                             : 92 (0x5C)
Menu ID                        : 30802 (0x7852)
Format                         : AC-3
Format/Info                    : Audio Coding 3
Mode extension                 : CM (complete main)
Format settings, Endianness    : Big
Codec ID                       : 6
Duration                       : 23mn 14s
Bit rate mode                  : Constant
Bit rate                       : 192 Kbps
Channel(s)                     : 2 channels
Channel positions              : Front: L R
Sampling rate                  : 48.0 KHz
Bit depth                      : 16 bits
Compression mode               : Lossy
Delay relative to video        : -1s 0ms
Stream size                    : 31.9 MiB (2%)
Language                       : Spanish
Encryption                     : Nagravision

Audio #2
ID                             : 93 (0x5D)
Menu ID                        : 30802 (0x7852)
Format                         : AC-3
Format/Info                    : Audio Coding 3
Mode extension                 : CM (complete main)
Format settings, Endianness    : Big
Codec ID                       : 6
Duration                       : 23mn 14s
Bit rate mode                  : Constant
Bit rate                       : 192 Kbps
Channel(s)                     : 2 channels
Channel positions              : Front: L R
Sampling rate                  : 48.0 KHz
Bit depth                      : 16 bits
Compression mode               : Lossy
Delay relative to video        : -992ms
Stream size                    : 31.9 MiB (2%)
Language                       : qaa
Encryption                     : Nagravision

Audio #3
ID                             : 94 (0x5E)
Menu ID                        : 30802 (0x7852)
Format                         : MPEG Audio
Format version                 : Version 1
Format profile                 : Layer 2
Codec ID                       : 4
Duration                       : 23mn 14s
Bit rate mode                  : Constant
Bit rate                       : 160 Kbps
Channel(s)                     : 1 channel
Sampling rate                  : 48.0 KHz
Compression mode               : Lossy
Delay relative to video        : -882ms
Stream size                    : 26.6 MiB (1%)
Encryption                     : Nagravision

Audio #4
ID                             : 95 (0x5F)
Menu ID                        : 30802 (0x7852)
Format                         : MPEG Audio
Format version                 : Version 1
Format profile                 : Layer 2
Codec ID                       : 4
Duration                       : 23mn 14s
Bit rate mode                  : Constant
Bit rate                       : 160 Kbps
Channel(s)                     : 1 channel
Sampling rate                  : 48.0 KHz
Compression mode               : Lossy
Delay relative to video        : -810ms
Stream size                    : 26.6 MiB (1%)
Encryption                     : Nagravision

_________________
webmoney: R102437980674, U865336828210, Bitcoin: 1C5RGE4438bq3VfVUEfcw63rmYrb6Sgr29. Файлы не конвертирую. Готов реанимировать почти все свои раздачи.


Последний раз редактировалось: K. Valera (2016-09-15 12:46), всего редактировалось 2 раз(а)
Profile PM

SDHD


Стаж: 2 года 3 месяца

Сообщений: 8

Италия

Торрент-статистика

post 06-Фев-2016 18:37 (спустя 10 месяцев)

Quote


K. Valera
Hi boss, I have a great favor to ask. Please can you reupload this fantastic documentary pleeeeease ???
Profile PM

K. Valera


Стаж: 4 года 7 месяцев

Сообщений: 781

Украина

Торрент-статистика

post 06-Фев-2016 19:07 (спустя 30 минут)

Quote


Reshared!
Раздаю.

_________________
webmoney: R102437980674, U865336828210, Bitcoin: 1C5RGE4438bq3VfVUEfcw63rmYrb6Sgr29. Файлы не конвертирую. Готов реанимировать почти все свои раздачи.
Profile PM

SDHD


Стаж: 2 года 3 месяца

Сообщений: 8

Италия

Торрент-статистика

post 06-Фев-2016 19:35 (спустя 27 минут)

Quote


Thanks a lot =D !
Profile PM

tatamodka


Стаж: 8 месяцев

Сообщений: 11

Откуда: Украина

Украина

Торрент-статистика

post 20-Апр-2016 12:15 (спустя 2 месяца 13 дней)

Quote


What words... super, a remarkable phrase
Profile PM

7inm


Стаж: 5 месяцев 4 дня

Сообщений: 4

Торрент-статистика

post 12-Сен-2016 19:10 (спустя 4 месяца 22 дня)

Quote


Man i need this so bad, how can i download this? Any help?
Profile PM

K. Valera


Стаж: 4 года 7 месяцев

Сообщений: 781

Украина

Торрент-статистика

post 15-Сен-2016 12:45 (спустя 2 дня 17 часов)

Quote


aq Reshared again!

Раздаю снова.

_________________
webmoney: R102437980674, U865336828210, Bitcoin: 1C5RGE4438bq3VfVUEfcw63rmYrb6Sgr29. Файлы не конвертирую. Готов реанимировать почти все свои раздачи.
Profile PM

7inm


Стаж: 5 месяцев 4 дня

Сообщений: 4

Торрент-статистика

post 20-Сен-2016 15:07 (спустя 5 дней)

Quote


You are the man!
Profile PM
Ответить на тему