Чемпионат Испании 2014-15 / El día después Episodio 28 / Обзор матчей / Canal+ Liga HD [24.03.2015, H.264, 1080i, SP, HDTV, SAT]

Ответить на тему

Автор Сообщение

K. Valera


Стаж: 4 года 7 месяцев

Сообщений: 778

Украина

Торрент-статистика

post 25-Мар-2015 21:28

Quote


Чемпионат Испании 2014-15 / El día después Episodio 28 / Обзор матчей / Canal+ Liga HD

Год выпуска: 24.03.2015
Вид спорта: Футбол
Релиз: rgfootball.net
Aвтор рипа: K. Valera
Продолжительность: 01:09:28
Комментарий: Профессиональный
Язык комментариев: Испанский
Ведущие: Jose Antonio Ponseti и Santiago Cañizares
Канал:
Качество: HDTV / Формат: *.ts / Видео Кодек: AVC / Аудио Кодек: AC-3, MPEG
Видео: 1920x1080 (16/9), 25,000 fps, 12.9 Мбит/сек
Аудио 1: 192 Kbps, 48 KHz, Dolby AC3 2.0 channels, CBR (Spanish)
Аудио 2: 192 Kbps, 48 KHz, Dolby AC3 2.0 channels, CBR (Spanish)
Аудио 3: 160 Kbps, 48 KHz, MPEG mp2 1.0 channels, CBR (---)
Аудио 4: 160 Kbps, 48 KHz, MPEG mp2 1.0 channels, CBR (---)
Запись видео: Openbox SX6 HD
Программа корректировки видео: Cypheros TS-Doctor ver. 1.2.22

Описание: Программа состоит из обзора лучших голов недели мирового футбола. Обзоры самых ярких игр и событий Чемпионата Испании. Болельщики, приколы, подробнейший обзор Классико. Вы увидите такие ракурсы и моменты, которых нет даже в самых хвалёных обзорах других телеканалов. И всё это в рипе сделанном эксклюзивно для rgfootball и не надо боятся коментариев на испанском. Не ужели вам не надоели эти "философы" с НТВ+?

Код:

General
ID                             : 1050 (0x41A)
Complete name                  : F:\El dia despues Episodio 28.ts
Format                         : MPEG-TS
File size                      : 6.26 GiB
Duration                       : 1h 9mn
Overall bit rate mode          : Variable
Overall bit rate               : 12.9 Mbps

Video
ID                             : 162 (0xA2)
Menu ID                        : 30802 (0x7852)
Format                         : AVC
Format/Info                    : Advanced Video Codec
Format profile                 : High@L4.0
Format settings, CABAC         : Yes
Format settings, ReFrames      : 4 frames
Codec ID                       : 27
Duration                       : 1h 9mn
Bit rate                       : 11.6 Mbps
Width                          : 1 920 pixels
Height                         : 1 080 pixels
Display aspect ratio           : 16:9
Frame rate                     : 25.000 fps
Color space                    : YUV
Chroma subsampling             : 4:2:0
Bit depth                      : 8 bits
Scan type                      : MBAFF
Scan order                     : Top Field First
Bits/(Pixel*Frame)             : 0.223
Stream size                    : 5.60 GiB (90%)
Encryption                     : Nagravision
Color primaries                : BT.709
Transfer characteristics       : BT.709
Matrix coefficients            : BT.709
Color range                    : Limited

Audio #1
ID                             : 92 (0x5C)
Menu ID                        : 30802 (0x7852)
Format                         : AC-3
Format/Info                    : Audio Coding 3
Mode extension                 : CM (complete main)
Format settings, Endianness    : Big
Codec ID                       : 6
Duration                       : 1h 9mn
Bit rate mode                  : Constant
Bit rate                       : 192 Kbps
Channel(s)                     : 2 channels
Channel positions              : Front: L R
Sampling rate                  : 48.0 KHz
Bit depth                      : 16 bits
Compression mode               : Lossy
Delay relative to video        : -655ms
Stream size                    : 95.4 MiB (1%)
Language                       : Spanish
Encryption                     : Nagravision

Audio #2
ID                             : 93 (0x5D)
Menu ID                        : 30802 (0x7852)
Format                         : AC-3
Format/Info                    : Audio Coding 3
Mode extension                 : CM (complete main)
Format settings, Endianness    : Big
Codec ID                       : 6
Duration                       : 1h 9mn
Bit rate mode                  : Constant
Bit rate                       : 192 Kbps
Channel(s)                     : 2 channels
Channel positions              : Front: L R
Sampling rate                  : 48.0 KHz
Bit depth                      : 16 bits
Compression mode               : Lossy
Delay relative to video        : -615ms
Stream size                    : 95.4 MiB (1%)
Language                       : qaa
Encryption                     : Nagravision

Audio #3
ID                             : 94 (0x5E)
Menu ID                        : 30802 (0x7852)
Format                         : MPEG Audio
Format version                 : Version 1
Format profile                 : Layer 2
Codec ID                       : 4
Duration                       : 1h 9mn
Bit rate mode                  : Constant
Bit rate                       : 160 Kbps
Channel(s)                     : 1 channel
Sampling rate                  : 48.0 KHz
Compression mode               : Lossy
Delay relative to video        : -601ms
Stream size                    : 79.5 MiB (1%)
Encryption                     : Nagravision

Audio #4
ID                             : 95 (0x5F)
Menu ID                        : 30802 (0x7852)
Format                         : MPEG Audio
Format version                 : Version 1
Format profile                 : Layer 2
Codec ID                       : 4
Duration                       : 1h 9mn
Bit rate mode                  : Constant
Bit rate                       : 160 Kbps
Channel(s)                     : 1 channel
Sampling rate                  : 48.0 KHz
Compression mode               : Lossy
Delay relative to video        : -529ms
Stream size                    : 79.5 MiB (1%)
Encryption                     : Nagravision

_________________
webmoney: R102437980674, U865336828210, Bitcoin: 1C5RGE4438bq3VfVUEfcw63rmYrb6Sgr29. Файлы не конвертирую. Готов реанимировать почти все свои раздачи.
Profile PM

loya


Стаж: 3 года 5 месяцев

Сообщений: 17

Торрент-статистика

post 29-Мар-2015 15:58 (спустя 3 дня)

Quote


необязательно слушать испаньол, есть интершум
Profile PM
Ответить на тему