Чемпионат Испании 2014-15 / Liga Adelante / 32-й тур / Planta Segunda Jornada 32 / Обзор матчей / Canal+ Liga HD [09.04.2015, H.264, 1080i, SP, HDTV, SAT]

Ответить на тему

Автор Сообщение

K. Valera


Стаж: 4 года 7 месяцев

Сообщений: 781

Украина

Торрент-статистика

post 09-Апр-2015 19:42

Quote


Чемпионат Испании 2014-15 / Liga Adelante / 32-й тур / Planta Segunda / Обзор матчей / Canal+ Liga HD

Год выпуска: 09.04.2015
Вид спорта: Футбол
Релиз: rgfootball.net
Aвтор рипа: K. Valera
Продолжительность: 00:47:58
Комментарий: Профессиональный
Язык комментариев: Испанский
Канал:
Качество: HDTV / Формат: *.ts / Видео Кодек: AVC / Аудио Кодек: AC-3, MPEG
Видео: 1920x1080 (16/9), 25,000 fps, 11.2 Мбит/сек
Аудио 1: 192 Kbps, 48 KHz, Dolby AC3 2.0 channels, CBR (Spanish)
Аудио 2: 192 Kbps, 48 KHz, Dolby AC3 2.0 channels, CBR (Spanish)
Аудио 3: 160 Kbps, 48 KHz, MPEG mp2 1.0 channels, CBR (Spanish)
Аудио 4: 160 Kbps, 48 KHz, MPEG mp2 1.0 channels, CBR (Spanish)
Запись видео: Openbox SX6 HD
Программа корректировки видео: Cypheros TS-Doctor ver. 1.2.22

Код:

General
ID                             : 1050 (0x41A)
Complete name                  : D:\Відео\Planta Segunda Jornada 32 C+ LIGA HD.ts
Format                         : MPEG-TS
File size                      : 3.76 GiB
Duration                       : 47mn 57s
Overall bit rate mode          : Variable
Overall bit rate               : 11.2 Mbps

Video
ID                             : 162 (0xA2)
Menu ID                        : 30802 (0x7852)
Format                         : AVC
Format/Info                    : Advanced Video Codec
Format profile                 : High@L4.0
Format settings, CABAC         : Yes
Format settings, ReFrames      : 4 frames
Codec ID                       : 27
Duration                       : 47mn 57s
Bit rate                       : 9 968 Kbps
Width                          : 1 920 pixels
Height                         : 1 080 pixels
Display aspect ratio           : 16:9
Frame rate                     : 25.000 fps
Color space                    : YUV
Chroma subsampling             : 4:2:0
Bit depth                      : 8 bits
Scan type                      : MBAFF
Scan order                     : Top Field First
Bits/(Pixel*Frame)             : 0.192
Stream size                    : 3.34 GiB (89%)
Encryption                     : Nagravision
Color primaries                : BT.709
Transfer characteristics       : BT.709
Matrix coefficients            : BT.709
Color range                    : Limited

Audio #1
ID                             : 92 (0x5C)
Menu ID                        : 30802 (0x7852)
Format                         : AC-3
Format/Info                    : Audio Coding 3
Mode extension                 : CM (complete main)
Format settings, Endianness    : Big
Codec ID                       : 6
Duration                       : 47mn 57s
Bit rate mode                  : Constant
Bit rate                       : 192 Kbps
Channel(s)                     : 2 channels
Channel positions              : Front: L R
Sampling rate                  : 48.0 KHz
Bit depth                      : 16 bits
Compression mode               : Lossy
Delay relative to video        : -1s 7ms
Stream size                    : 65.9 MiB (2%)
Language                       : Spanish
Encryption                     : Nagravision

Audio #2
ID                             : 93 (0x5D)
Menu ID                        : 30802 (0x7852)
Format                         : AC-3
Format/Info                    : Audio Coding 3
Mode extension                 : CM (complete main)
Format settings, Endianness    : Big
Codec ID                       : 6
Duration                       : 47mn 57s
Bit rate mode                  : Constant
Bit rate                       : 192 Kbps
Channel(s)                     : 2 channels
Channel positions              : Front: L R
Sampling rate                  : 48.0 KHz
Bit depth                      : 16 bits
Compression mode               : Lossy
Delay relative to video        : -1s 0ms
Stream size                    : 65.9 MiB (2%)
Language                       : qaa
Encryption                     : Nagravision

Audio #3
ID                             : 94 (0x5E)
Menu ID                        : 30802 (0x7852)
Format                         : MPEG Audio
Format version                 : Version 1
Format profile                 : Layer 2
Codec ID                       : 4
Duration                       : 47mn 57s
Bit rate mode                  : Constant
Bit rate                       : 160 Kbps
Channel(s)                     : 1 channel
Sampling rate                  : 48.0 KHz
Compression mode               : Lossy
Delay relative to video        : -826ms
Stream size                    : 54.9 MiB (1%)
Encryption                     : Nagravision

Audio #4
ID                             : 95 (0x5F)
Menu ID                        : 30802 (0x7852)
Format                         : MPEG Audio
Format version                 : Version 1
Format profile                 : Layer 2
Codec ID                       : 4
Duration                       : 47mn 57s
Bit rate mode                  : Constant
Bit rate                       : 160 Kbps
Channel(s)                     : 1 channel
Sampling rate                  : 48.0 KHz
Compression mode               : Lossy
Delay relative to video        : -946ms
Stream size                    : 54.9 MiB (1%)
Encryption                     : Nagravision

_________________
webmoney: R102437980674, U865336828210, Bitcoin: 1C5RGE4438bq3VfVUEfcw63rmYrb6Sgr29. Файлы не конвертирую. Готов реанимировать почти все свои раздачи.
Profile PM

Chameleon


Стаж: 6 лет

Сообщений: 3701

Откуда: Tyumen

Россия

Торрент-статистика

post 11-Апр-2015 14:16 (спустя 1 день 18 часов)

Quote


Чемпионат Испании 2014-15 / Liga Adelante / 32-й тур / Planta Segunda / Обзор матчей / Canal+ Liga HD [09.04.2015, 720р, H264, ES, HDTV, SAT]

_________________
Насчет матчей чемпионата Аргентины, Бразилии, Южной Кореи и других лиг пишите в ЛС.
Profile PM
Ответить на тему