Чемпионат Испании 2014-15 / Liga Adelante / 41-й тур / Planta Segunda / Обзор матчей / Canal+ Liga HD [19.06.2015, H.264, 1080i, SP, HDTV, SAT]

Ответить на тему

Автор Сообщение

K. Valera


Стаж: 4 года 7 месяцев

Сообщений: 781

Украина

Торрент-статистика

post 06-Июн-2015 07:51

Quote


Чемпионат Испании 2014-15 / Liga Adelante / 41-й тур / Planta Segunda / Обзор матчей / Canal+ Liga HD

Год выпуска: 03.06.2015
Вид спорта: Футбол
Релиз:
Aвтор рипа: K. Valera
Продолжительность: 00:55:16
Комментарий: Профессиональный
Язык комментариев: Испанский
Канал:
Качество: HDTV / Формат: *.ts / Видео Кодек: AVC / Аудио Кодек: AC-3
Видео: 1920x1080 (16/9), 25,000 fps, 12.7 Мбит/сек
Аудио: 192 Kbps, 48 KHz, Dolby AC3 2.0 channels, CBR (Spanish)
Запись видео: U2C S+ MiniHD
Программа корректировки видео: Cypheros TS-Doctor ver. 1.2.22

Код:

General
ID                             : 1050 (0x41A)
Complete name                  : F:\Planta Segunda Jornada 41.ts
Format                         : MPEG-TS
File size                      : 4.91 GiB
Duration                       : 55mn 15s
Overall bit rate mode          : Variable
Overall bit rate               : 12.7 Mbps

Video
ID                             : 162 (0xA2)
Menu ID                        : 30802 (0x7852)
Format                         : AVC
Format/Info                    : Advanced Video Codec
Format profile                 : High@L4.0
Format settings, CABAC         : Yes
Format settings, ReFrames      : 4 frames
Codec ID                       : 27
Duration                       : 55mn 14s
Bit rate                       : 11.9 Mbps
Width                          : 1 920 pixels
Height                         : 1 080 pixels
Display aspect ratio           : 16:9
Frame rate                     : 25.000 fps
Color space                    : YUV
Chroma subsampling             : 4:2:0
Bit depth                      : 8 bits
Scan type                      : MBAFF
Scan order                     : Top Field First
Bits/(Pixel*Frame)             : 0.229
Stream size                    : 4.59 GiB (94%)
Encryption                     : Nagravision
Color primaries                : BT.709
Transfer characteristics       : BT.709
Matrix coefficients            : BT.709
Color range                    : Limited

Audio
ID                             : 93 (0x5D)
Menu ID                        : 30802 (0x7852)
Format                         : AC-3
Format/Info                    : Audio Coding 3
Mode extension                 : CM (complete main)
Format settings, Endianness    : Big
Codec ID                       : 6
Duration                       : 55mn 15s
Bit rate mode                  : Constant
Bit rate                       : 192 Kbps
Channel(s)                     : 2 channels
Channel positions              : Front: L R
Sampling rate                  : 48.0 KHz
Bit depth                      : 16 bits
Compression mode               : Lossy
Delay relative to video        : -960ms
Stream size                    : 75.9 MiB (2%)
Language                       : qaa
Encryption                     : Nagravision

_________________
webmoney: R102437980674, U865336828210, Bitcoin: 1C5RGE4438bq3VfVUEfcw63rmYrb6Sgr29. Файлы не конвертирую. Готов реанимировать почти все свои раздачи.
Profile PM
Ответить на тему