Чемпионат Испании 2015-16 / Liga Adelante / 1-й тур / Planta Segunda / Обзор матчей / Canal+ HD [26.08.2015, H.264, 1080i, SP, HDTV, SAT]

Ответить на тему

Автор Сообщение

K. Valera


Стаж: 4 года 7 месяцев

Сообщений: 781

Украина

Торрент-статистика

post 27-Авг-2015 17:41

Quote


Чемпионат Испании 2015-16 / Liga Adelante / 1-й тур / Planta Segunda / Обзор матчей / Canal+ HD

Год выпуска: 26.08.2015
Вид спорта: Футбол
Релиз:
Aвтор рипа: K. Valera
Продолжительность: 00:52:42
Комментарий: Профессиональный
Язык комментариев: Испанский
Канал:
Качество: HDTV / Формат: *.ts / Видео Кодек: AVC / Аудио Кодек: AC-3
Видео: 1440x1080 (16/9), 25,000 fps, 7.2 Мбит/сек
Аудио 1: 192 Kbps, 48 KHz, Dolby AC3 2.0 channels, CBR (Spanish)
Аудио 2: 192 Kbps, 48 KHz, Dolby AC3 2.0 channels, CBR (Spanish)
Запись видео: Openbox SX6 HD
Программа корректировки видео: Cypheros TS-Doctor ver. 1.2.22

Код:

General
ID                             : 1044 (0x414)
Complete name                  : D:\111\Planta Segunda Jornada 1 2015-16.ts
Format                         : MPEG-TS
File size                      : 2.66 GiB
Duration                       : 52mn 42s
Overall bit rate mode          : Variable
Overall bit rate               : 7 217 Kbps

Video
ID                             : 165 (0xA5)
Menu ID                        : 30860 (0x788C)
Format                         : AVC
Format/Info                    : Advanced Video Codec
Format profile                 : High@L4
Format settings, CABAC         : Yes
Format settings, ReFrames      : 4 frames
Codec ID                       : 27
Duration                       : 52mn 42s
Bit rate                       : 6 473 Kbps
Width                          : 1 440 pixels
Height                         : 1 080 pixels
Display aspect ratio           : 16:9
Frame rate                     : 25.000 fps
Color space                    : YUV
Chroma subsampling             : 4:2:0
Bit depth                      : 8 bits
Scan type                      : MBAFF
Scan order                     : Top Field First
Bits/(Pixel*Frame)             : 0.166
Stream size                    : 2.38 GiB (90%)
Encryption                     : Nagravision
Color range                    : Limited
Color primaries                : BT.709
Transfer characteristics       : BT.709
Matrix coefficients            : BT.709

Audio #1
ID                             : 110 (0x6E)
Menu ID                        : 30860 (0x788C)
Format                         : AC-3
Format/Info                    : Audio Coding 3
Mode extension                 : CM (complete main)
Format settings, Endianness    : Big
Codec ID                       : 6
Duration                       : 52mn 42s
Bit rate mode                  : Constant
Bit rate                       : 192 Kbps
Channel(s)                     : 2 channels
Channel positions              : Front: L R
Sampling rate                  : 48.0 KHz
Bit depth                      : 16 bits
Compression mode               : Lossy
Delay relative to video        : 25ms
Stream size                    : 72.4 MiB (3%)
Language                       : Spanish
Language, more info            : Clean effects
Encryption                     : Nagravision

Audio #2
ID                             : 111 (0x6F)
Menu ID                        : 30860 (0x788C)
Format                         : AC-3
Format/Info                    : Audio Coding 3
Mode extension                 : CM (complete main)
Format settings, Endianness    : Big
Codec ID                       : 6
Duration                       : 52mn 42s
Bit rate mode                  : Constant
Bit rate                       : 192 Kbps
Channel(s)                     : 2 channels
Channel positions              : Front: L R
Sampling rate                  : 48.0 KHz
Bit depth                      : 16 bits
Compression mode               : Lossy
Delay relative to video        : 11ms
Stream size                    : 72.4 MiB (3%)
Language                       : qaa
Encryption                     : Nagravision

_________________
webmoney: R102437980674, U865336828210, Bitcoin: 1C5RGE4438bq3VfVUEfcw63rmYrb6Sgr29. Файлы не конвертирую. Готов реанимировать почти все свои раздачи.


Последний раз редактировалось: K. Valera (2015-09-08 09:48), всего редактировалось 1 раз
Profile PM

Heavy_serg


Стаж: 5 лет 9 месяцев

Сообщений: 1993

Откуда: Moscow

Россия

Торрент-статистика

post 29-Авг-2015 00:43 (спустя 1 день 7 часов)

Quote


Спасибо!

_________________
Mes Que Un Club
Profile PM

Tyler Durden


Стаж: 4 года 2 месяца

Сообщений: 11

Россия

Торрент-статистика

post 31-Авг-2015 19:34 (спустя 2 дня 18 часов)

Quote


Вот так подарочек!
Profile PM

Stage


Стаж: 4 года 6 месяцев

Сообщений: 2

Россия

Торрент-статистика

post 02-Сен-2015 19:43 (спустя 2 дня)

Quote


Спасибо!!!
Profile PM
Ответить на тему