Чемпионат Испании 2015-16 / Liga Adelante / 2-й тур / Compact Liga Adelante Jornada 2 / Обзор матчей / Canal+ Liga2 HD [31.08.2015, H.264, 1080i, SP, HDTV, SAT]

Ответить на тему

Автор Сообщение

K. Valera


Стаж: 4 года 7 месяцев

Сообщений: 781

Украина

Торрент-статистика

post 01-Сен-2015 14:42

Quote


Чемпионат Испании 2015-16 / Liga Adelante / 2-й тур / Compact Liga Adelante Jornada 2 / Обзор матчей / Canal+ Liga2 HD

Год выпуска: 31.08.2015
Вид спорта: Футбол
Релиз:
Aвтор рипа: K. Valera
Продолжительность: 00:34:07
Комментарий: Профессиональный
Язык комментариев: Испанский
Канал:
Качество: HDTV / Формат: *.ts / Видео Кодек: AVC / Аудио Кодек: AC-3
Видео: 1440x1080 (16/9), 25,000 fps, 5.6 Мбит/сек
Аудио 1: 192 Kbps, 48 KHz, Dolby AC3 2.0 channels, CBR (Spanish)
Аудио 2: 192 Kbps, 48 KHz, Dolby AC3 2.0 channels, CBR (Spanish)
Запись видео: Openbox SX6 HD
Программа корректировки видео: Cypheros TS-Doctor ver. 1.2.22

Код:

General
ID                             : 1056 (0x420)
Complete name                  : D:\111\COMPACT LIGA ADELANTE 02 2015.ts
Format                         : MPEG-TS
File size                      : 1.36 GiB
Duration                       : 34mn 6s
Overall bit rate mode          : Variable
Overall bit rate               : 5 692 Kbps

Video
ID                             : 167 (0xA7)
Menu ID                        : 29967 (0x750F)
Format                         : AVC
Format/Info                    : Advanced Video Codec
Format profile                 : High@L4
Format settings, CABAC         : Yes
Format settings, ReFrames      : 4 frames
Codec ID                       : 27
Duration                       : 34mn 6s
Bit rate                       : 5 022 Kbps
Width                          : 1 440 pixels
Height                         : 1 080 pixels
Display aspect ratio           : 16:9
Frame rate                     : 25.000 fps
Color space                    : YUV
Chroma subsampling             : 4:2:0
Bit depth                      : 8 bits
Scan type                      : MBAFF
Scan order                     : Top Field First
Bits/(Pixel*Frame)             : 0.129
Stream size                    : 1.20 GiB (88%)
Encryption                     : Nagravision
Color range                    : Limited
Color primaries                : BT.709
Transfer characteristics       : BT.709
Matrix coefficients            : BT.709

Audio #1
ID                             : 120 (0x78)
Menu ID                        : 29967 (0x750F)
Format                         : AC-3
Format/Info                    : Audio Coding 3
Mode extension                 : CM (complete main)
Format settings, Endianness    : Big
Codec ID                       : 6
Duration                       : 34mn 6s
Bit rate mode                  : Constant
Bit rate                       : 192 Kbps
Channel(s)                     : 2 channels
Channel positions              : Front: L R
Sampling rate                  : 48.0 KHz
Bit depth                      : 16 bits
Compression mode               : Lossy
Delay relative to video        : 15ms
Stream size                    : 46.8 MiB (3%)
Language                       : Spanish
Language, more info            : Clean effects
Encryption                     : Nagravision

Audio #2
ID                             : 121 (0x79)
Menu ID                        : 29967 (0x750F)
Format                         : AC-3
Format/Info                    : Audio Coding 3
Mode extension                 : CM (complete main)
Format settings, Endianness    : Big
Codec ID                       : 6
Duration                       : 34mn 6s
Bit rate mode                  : Constant
Bit rate                       : 192 Kbps
Channel(s)                     : 2 channels
Channel positions              : Front: L R
Sampling rate                  : 48.0 KHz
Bit depth                      : 16 bits
Compression mode               : Lossy
Delay relative to video        : 9ms
Stream size                    : 46.8 MiB (3%)
Language                       : dos
Language, more info            : Clean effects
Encryption                     : Nagravision

_________________
webmoney: R102437980674, U865336828210, Bitcoin: 1C5RGE4438bq3VfVUEfcw63rmYrb6Sgr29. Файлы не конвертирую. Готов реанимировать почти все свои раздачи.


Последний раз редактировалось: K. Valera (2015-09-08 09:48), всего редактировалось 1 раз
Profile PM

Defensor Alex


Стаж: 6 лет

Сообщений: 48

Откуда: Сьюдад Пермь

Аргентина

Торрент-статистика

post 01-Сен-2015 15:31 (спустя 49 минут)

Quote


Спасибо, большое, но если можно в mkv?
Profile PM

K. Valera


Стаж: 4 года 7 месяцев

Сообщений: 781

Украина

Торрент-статистика

post 01-Сен-2015 22:52 (спустя 7 часов)

Quote


Defensor Alex писал(а):

Спасибо, большое, но если можно в mkv?

_________________
webmoney: R102437980674, U865336828210, Bitcoin: 1C5RGE4438bq3VfVUEfcw63rmYrb6Sgr29. Файлы не конвертирую. Готов реанимировать почти все свои раздачи.
Profile PM
Ответить на тему