Чемпионат Испании 2015-16 / Liga Adelante / 3-й тур / Planta Segunda Jornada 3 / Обзор матчей / Canal+ Liga2 HD [08.09.2015, H.264, 1080i, SP, HDTV, SAT]

Ответить на тему

Автор Сообщение

K. Valera


Стаж: 4 года 7 месяцев

Сообщений: 781

Украина

Торрент-статистика

post 09-Сен-2015 09:51

Quote


Чемпионат Испании 2015-16 / Liga Adelante / 3-й тур / Planta Segunda Jornada 3 / Обзор матчей / Canal+ Liga2 HD

Год выпуска: 08.09.2015
Вид спорта: Футбол
Релиз:
Aвтор рипа: K. Valera
Продолжительность: 00:54:36
Комментарий: Профессиональный
Язык комментариев: Испанский
Канал:
Качество: HDTV / Формат: *.ts / Видео Кодек: AVC / Аудио Кодек: AC-3
Видео: 1440x1080 (16/9), 25,000 fps, 5.3 Мбит/сек
Аудио 1: 192 Kbps, 48 KHz, Dolby AC3 2.0 channels, CBR (Spanish)
Аудио 2: 192 Kbps, 48 KHz, Dolby AC3 2.0 channels, CBR (Spanish)
Запись видео: Openbox SX6 HD
Программа корректировки видео: Cypheros TS-Doctor ver. 1.2.22

Код:

General
ID                             : 1056 (0x420)
Complete name                  : D:\111\Planta Segunda Jornada 3 2015-16.ts
Format                         : MPEG-TS
File size                      : 2.01 GiB
Duration                       : 54mn 35s
Overall bit rate mode          : Variable
Overall bit rate               : 5 262 Kbps

Video
ID                             : 167 (0xA7)
Menu ID                        : 29967 (0x750F)
Format                         : AVC
Format/Info                    : Advanced Video Codec
Format profile                 : High@L4
Format settings, CABAC         : Yes
Format settings, ReFrames      : 4 frames
Codec ID                       : 27
Duration                       : 54mn 35s
Bit rate                       : 4 614 Kbps
Width                          : 1 440 pixels
Height                         : 1 080 pixels
Display aspect ratio           : 16:9
Frame rate                     : 25.000 fps
Color space                    : YUV
Chroma subsampling             : 4:2:0
Bit depth                      : 8 bits
Scan type                      : MBAFF
Scan order                     : Top Field First
Bits/(Pixel*Frame)             : 0.119
Stream size                    : 1.76 GiB (88%)
Encryption                     : Nagravision
Color range                    : Limited
Color primaries                : BT.709
Transfer characteristics       : BT.709
Matrix coefficients            : BT.709

Audio #1
ID                             : 120 (0x78)
Menu ID                        : 29967 (0x750F)
Format                         : AC-3
Format/Info                    : Audio Coding 3
Mode extension                 : CM (complete main)
Format settings, Endianness    : Big
Codec ID                       : 6
Duration                       : 54mn 35s
Bit rate mode                  : Constant
Bit rate                       : 192 Kbps
Channel(s)                     : 2 channels
Channel positions              : Front: L R
Sampling rate                  : 48.0 KHz
Bit depth                      : 16 bits
Compression mode               : Lossy
Delay relative to video        : -1s 337ms
Stream size                    : 75.0 MiB (4%)
Language                       : Spanish
Language, more info            : Clean effects
Encryption                     : Nagravision

Audio #2
ID                             : 121 (0x79)
Menu ID                        : 29967 (0x750F)
Format                         : AC-3
Format/Info                    : Audio Coding 3
Mode extension                 : CM (complete main)
Format settings, Endianness    : Big
Codec ID                       : 6
Duration                       : 54mn 35s
Bit rate mode                  : Constant
Bit rate                       : 192 Kbps
Channel(s)                     : 2 channels
Channel positions              : Front: L R
Sampling rate                  : 48.0 KHz
Bit depth                      : 16 bits
Compression mode               : Lossy
Delay relative to video        : -1s 311ms
Stream size                    : 75.0 MiB (4%)
Language                       : dos
Language, more info            : Clean effects
Encryption                     : Nagravision

_________________
webmoney: R102437980674, U865336828210, Bitcoin: 1C5RGE4438bq3VfVUEfcw63rmYrb6Sgr29. Файлы не конвертирую. Готов реанимировать почти все свои раздачи.
Profile PM
Ответить на тему