Чемпионат Испании 2015-16 / Liga Adelante / 4-й тур / Compact Liga Adelante Jornada 4 / Обзор матчей / Canal+ Liga2 HD [15.09.2015, H.264, 1080i, SP, HDTV, SAT]

Ответить на тему

Автор Сообщение

K. Valera


Стаж: 4 года 7 месяцев

Сообщений: 781

Украина

Торрент-статистика

post 15-Сен-2015 09:24

Quote


Чемпионат Испании 2015-16 / Liga Adelante / 4-й тур / Compact Liga Adelante Jornada 4 / Обзор матчей / Canal+ Liga2 HD

Год выпуска: 15.09.2015
Вид спорта: Футбол
Релиз:
Aвтор рипа: K. Valera
Продолжительность: 00:58:40
Комментарий: Профессиональный
Язык комментариев: Испанский
Канал:
Качество: HDTV / Формат: *.ts / Видео Кодек: AVC / Аудио Кодек: AC-3
Видео: 1440x1080 (16/9), 25,000 fps, 5.5 Мбит/сек
Аудио 1: 192 Kbps, 48 KHz, Dolby AC3 2.0 channels, CBR (Spanish)
Аудио 2: 192 Kbps, 48 KHz, Dolby AC3 2.0 channels, CBR (Spanish)
Запись видео: Openbox SX6 HD
Программа корректировки видео: Cypheros TS-Doctor ver. 1.2.22

Код:

General
ID                             : 1056 (0x420)
Complete name                  : E:\COMPACT LIGA ADELANTE 04 2015.ts
Format                         : MPEG-TS
File size                      : 2.24 GiB
Duration                       : 58mn 39s
Overall bit rate mode          : Variable
Overall bit rate               : 5 477 Kbps

Video
ID                             : 167 (0xA7)
Menu ID                        : 29967 (0x750F)
Format                         : AVC
Format/Info                    : Advanced Video Codec
Format profile                 : High@L4.0
Format settings, CABAC         : Yes
Format settings, ReFrames      : 4 frames
Codec ID                       : 27
Duration                       : 58mn 39s
Bit rate                       : 4 818 Kbps
Width                          : 1 440 pixels
Height                         : 1 080 pixels
Display aspect ratio           : 16:9
Frame rate                     : 25.000 fps
Color space                    : YUV
Chroma subsampling             : 4:2:0
Bit depth                      : 8 bits
Scan type                      : MBAFF
Scan order                     : Top Field First
Bits/(Pixel*Frame)             : 0.124
Stream size                    : 1.97 GiB (88%)
Encryption                     : Nagravision
Color primaries                : BT.709
Transfer characteristics       : BT.709
Matrix coefficients            : BT.709
Color range                    : Limited

Audio #1
ID                             : 120 (0x78)
Menu ID                        : 29967 (0x750F)
Format                         : AC-3
Format/Info                    : Audio Coding 3
Mode extension                 : CM (complete main)
Format settings, Endianness    : Big
Codec ID                       : 6
Duration                       : 58mn 39s
Bit rate mode                  : Constant
Bit rate                       : 192 Kbps
Channel(s)                     : 2 channels
Channel positions              : Front: L R
Sampling rate                  : 48.0 KHz
Bit depth                      : 16 bits
Compression mode               : Lossy
Delay relative to video        : -873ms
Stream size                    : 80.5 MiB (4%)
Language                       : Spanish
Language, more info            : Clean effects
Encryption                     : Nagravision

Audio #2
ID                             : 121 (0x79)
Menu ID                        : 29967 (0x750F)
Format                         : AC-3
Format/Info                    : Audio Coding 3
Mode extension                 : CM (complete main)
Format settings, Endianness    : Big
Codec ID                       : 6
Duration                       : 58mn 39s
Bit rate mode                  : Constant
Bit rate                       : 192 Kbps
Channel(s)                     : 2 channels
Channel positions              : Front: L R
Sampling rate                  : 48.0 KHz
Bit depth                      : 16 bits
Compression mode               : Lossy
Delay relative to video        : -879ms
Stream size                    : 80.5 MiB (4%)
Language                       : dos
Language, more info            : Clean effects
Encryption                     : Nagravision

_________________
webmoney: R102437980674, U865336828210, Bitcoin: 1C5RGE4438bq3VfVUEfcw63rmYrb6Sgr29. Файлы не конвертирую. Готов реанимировать почти все свои раздачи.


Последний раз редактировалось: K. Valera (2015-09-22 10:31), всего редактировалось 2 раз(а)
Profile PM

Pepperoni


Стаж: 6 лет

Сообщений: 3322

Откуда: Milan

Италия

Торрент-статистика

post 15-Сен-2015 10:11 (спустя 46 минут)

Quote


SD в пути.

_________________
Profile PM

Pepperoni


Стаж: 6 лет

Сообщений: 3322

Откуда: Milan

Италия

Торрент-статистика

post 25-Сен-2015 12:02 (спустя 10 дней)

Quote


И надо проверять исходники перед тем, как выкладывать их, резать лишнее и проверять на ошибки. У Вас больше минут выпало, а Вы даже не написали об этом.

_________________
Profile PM
Ответить на тему