Чемпионат Испании 2015-16 / Liga Adelante / 8-й тур / Compact Liga Adelante Jornada 8 / Обзор матчей / Canal+ Liga 2 HD [12.10.2015, H.264, 1080i, SP, HDTV, SAT]

Ответить на тему

Автор Сообщение

K. Valera


Стаж: 4 года 7 месяцев

Сообщений: 781

Украина

Торрент-статистика

post 13-Окт-2015 16:10

Quote


Чемпионат Испании 2015-16 / Liga Adelante / 8-й тур / Compact Liga Adelante Jornada 8 / Обзор матчей / Canal+ Liga 2 HD

Год выпуска: 12.10.2015
Вид спорта: Футбол
Релиз:
Aвтор рипа: K. Valera
Продолжительность: 00:55:31
Комментарий: Профессиональный
Язык комментариев: Испанский
Канал:
Качество: HDTV / Формат: *.ts / Видео Кодек: AVC / Аудио Кодек: AC-3
Видео: 1440x1080 (16/9), 25,000 fps, 4 800 Kbps
Аудио 1: 192 Kbps, 48 KHz, Dolby AC3 2.0 channels, CBR (Spanish)
Аудио 2: 192 Kbps, 48 KHz, Dolby AC3 2.0 channels, CBR (Spanish)
Запись видео: Openbox SX6 HD
Программа корректировки видео: Cypheros TS-Doctor ver. 1.2.22

aq На 00:35:41 - зажевало чуток aq

Код:

General
ID                             : 1056 (0x420)
Complete name                  : D:\111\Compact Liga Adelante Jornada 8.ts
Format                         : MPEG-TS
File size                      : 2.12 GiB
Duration                       : 55mn 31s
Overall bit rate mode          : Variable
Overall bit rate               : 5 458 Kbps

Video
ID                             : 167 (0xA7)
Menu ID                        : 29967 (0x750F)
Format                         : AVC
Format/Info                    : Advanced Video Codec
Format profile                 : High@L4
Format settings, CABAC         : Yes
Format settings, ReFrames      : 4 frames
Codec ID                       : 27
Duration                       : 55mn 30s
Bit rate                       : 4 800 Kbps
Width                          : 1 440 pixels
Height                         : 1 080 pixels
Display aspect ratio           : 16:9
Frame rate                     : 25.000 fps
Color space                    : YUV
Chroma subsampling             : 4:2:0
Bit depth                      : 8 bits
Scan type                      : MBAFF
Scan order                     : Top Field First
Bits/(Pixel*Frame)             : 0.123
Stream size                    : 1.86 GiB (88%)
Encryption                     : Nagravision
Color range                    : Limited
Color primaries                : BT.709
Transfer characteristics       : BT.709
Matrix coefficients            : BT.709

Audio #1
ID                             : 120 (0x78)
Menu ID                        : 29967 (0x750F)
Format                         : AC-3
Format/Info                    : Audio Coding 3
Mode extension                 : CM (complete main)
Format settings, Endianness    : Big
Codec ID                       : 6
Duration                       : 55mn 31s
Bit rate mode                  : Constant
Bit rate                       : 192 Kbps
Channel(s)                     : 2 channels
Channel positions              : Front: L R
Sampling rate                  : 48.0 KHz
Bit depth                      : 16 bits
Compression mode               : Lossy
Delay relative to video        : -1s 370ms
Stream size                    : 76.2 MiB (4%)
Language                       : Spanish
Language, more info            : Clean effects
Encryption                     : Nagravision

Audio #2
ID                             : 121 (0x79)
Menu ID                        : 29967 (0x750F)
Format                         : AC-3
Format/Info                    : Audio Coding 3
Mode extension                 : CM (complete main)
Format settings, Endianness    : Big
Codec ID                       : 6
Duration                       : 55mn 31s
Bit rate mode                  : Constant
Bit rate                       : 192 Kbps
Channel(s)                     : 2 channels
Channel positions              : Front: L R
Sampling rate                  : 48.0 KHz
Bit depth                      : 16 bits
Compression mode               : Lossy
Delay relative to video        : -1s 376ms
Stream size                    : 76.2 MiB (4%)
Language                       : dos
Language, more info            : Clean effects
Encryption                     : Nagravision

Код:

00:35:41.909 ; 00:00:00.032 ; 2
-16:11:12.712 ; 00:00:00.000 ; 2
-16:11:12.712 ; 00:00:00.000 ; 3
-16:11:12.712 ; 00:00:00.000 ; 2
-16:11:12.712 ; 00:00:00.000 ; 5
-16:11:12.712 ; 00:00:00.000 ; 2
-16:11:12.712 ; 00:00:00.000 ; 2
-16:11:12.712 ; 00:00:00.000 ; 3
-16:11:12.712 ; 00:00:00.000 ; 2
-16:11:12.712 ; 00:00:00.000 ; 6

_________________
webmoney: R102437980674, U865336828210, Bitcoin: 1C5RGE4438bq3VfVUEfcw63rmYrb6Sgr29. Файлы не конвертирую. Готов реанимировать почти все свои раздачи.
Profile PM
Ответить на тему