Чемпионат Испании 2015-16 / Segunda / 12-й тур / Planta segunda / Canal+ HD [10.11.2015, HD, 720p, H264, ES, SAT]

Ответить на тему

Автор Сообщение

Chameleon


Стаж: 6 лет

Сообщений: 3701

Откуда: Tyumen

Россия

Торрент-статистика

post 12-Ноя-2015 15:40

Quote




Страна: Испания.
Турнир: Чемпионат Испании 2015-16. Segunda. 12-й тур.
Тип передачи: Planta segunda.
Дата матча: 10.11.2015
Телеканал: Canal+ HD
Язык комментариев: Espanol
Продолжительность: ***
Формат видео: MKV
Видео кодек, разрешение, ...: H264, 1280x720, 1500 kbps, 25 fps
Аудио кодек, ...: MP3, 128 kbps, 2 ch, 48 kHz
Автор: yeraimg
Format : Matroska
Format version : Version 4 / Version 2
File size : 686 MiB
Duration : 58mn 45s
Overall bit rate : 1 633 Kbps
Encoded date : UTC 2015-11-10 21:03:30
Writing application : mkvmerge v8.5.1 ('Where you lead I will follow') 64bit
Writing library : libebml v1.3.3 + libmatroska v1.4.4
DURATION : 00:58:45.820000000
NUMBER_OF_FRAMES : 87634
NUMBER_OF_BYTES : 662912849
_STATISTICS_WRITING_APP : mkvmerge v8.5.1 ('Where you lead I will follow') 64bit
_STATISTICS_WRITING_DATE_UT : 2015-11-10 21:03:30
_STATISTICS_TAGS : BPS DURATION NUMBER_OF_FRAMES NUMBER_OF_BYTES

Video
ID : 2
Format : AVC
Format/Info : Advanced Video Codec
Format profile : High@L3.2
Format settings, CABAC : Yes
Format settings, ReFrames : 4 frames
Codec ID : V_MPEG4/ISO/AVC
Duration : 58mn 45s
Bit rate : 1 472 Kbps
Width : 1 280 pixels
Height : 720 pixels
Display aspect ratio : 16:9
Frame rate mode : Constant
Frame rate : 25.000 fps
Original frame rate : 50.000 fps
Color space : YUV
Chroma subsampling : 4:2:0
Bit depth : 8 bits
Scan type : Progressive
Bits/(Pixel*Frame) : 0.064
Stream size : 619 MiB (90%)
Default : Yes
Forced : No

Audio
ID : 1
Format : MPEG Audio
Format version : Version 1
Format profile : Layer 2
Codec ID : A_MPEG/L2
Codec ID/Hint : MP2
Duration : 58mn 45s
Bit rate mode : Constant
Bit rate : 128 Kbps
Channel(s) : 2 channels
Sampling rate : 44.1 KHz
Compression mode : Lossy
Delay relative to video : 5ms
Stream size : 53.8 MiB (8%)
Default : Yes
Forced : No

00:58:45

Скриншоты:

_________________
Насчет матчей чемпионата Аргентины, Бразилии, Южной Кореи и других лиг пишите в ЛС.
Profile PM
Ответить на тему