Especial El Clásico / beIN LaLiga HD [19.04.2017, 1080i, H.264, Music, HDTV, SAT]

Ответить на тему

Автор Сообщение

K. Valera


Стаж: 10 лет

Сообщений: 884

Украина

Торрент-статистика

post 20-Апр-2017 14:33

Quote


Especial El Clásico / beIN LaLiga HD




Год выпуска: 19.04.2017
Вид : Футбол
Релиз:
Aвтор рипа: K. Valera
Продолжительность: 00:45:09
Канал:
Комментарий: Отсутствуют (Музыкальное сопровождение)
Качество: HDTV / Формат: *.ts / Видео Кодек: AVC / Аудио Кодек: MPEG Audio, AC-3
Видео: 1920x1080 (16/9), 25,000 fps, 8 671 Kbps
Аудио 1: 192 Kbps, 48 KHz, Dolby AC-3 2.0 channels Music
Аудио 2: 192 Kbps, 48 KHz, Dolby AC-3 2.0 channels Music
Аудио 1: 128 Kbps, 48 KHz, MPEG Audio 2.0 channels Music
Аудио 2: 128 Kbps, 48 KHz, MPEG Audio 2.0 channels Music
Запись видео:
Программа корректировки видео: Cypheros TS-Doctor ver. 1.2.22

Sinopsis Especial El Clásico

El plató de Gol sirve de introducción del mejor fútbol. Las previas de los partidos, los resúmenes, las clasificaciones, las imágenes más divertidas.

Код:

General
ID                             : 1056 (0x420)
Complete name                  : E:\Especial El Clásico beIN LaLiga HD.ts
Format                         : MPEG-TS
File size                      : 3.09 GiB
Duration                       : 45mn 9s
Overall bit rate mode          : Variable
Overall bit rate               : 9 802 Kbps

Video
ID                             : 167 (0xA7)
Menu ID                        : 29952 (0x7500)
Format                         : AVC
Format/Info                    : Advanced Video Codec
Format profile                 : High@L4
Format settings, CABAC         : Yes
Format settings, ReFrames      : 4 frames
Codec ID                       : 27
Duration                       : 45mn 8s
Bit rate                       : 8 671 Kbps
Width                          : 1 920 pixels
Height                         : 1 080 pixels
Display aspect ratio           : 16:9
Frame rate                     : 25.000 fps
Color space                    : YUV
Chroma subsampling             : 4:2:0
Bit depth                      : 8 bits
Scan type                      : MBAFF
Scan order                     : Top Field First
Bits/(Pixel*Frame)             : 0.167
Stream size                    : 2.73 GiB (88%)
Encryption                     : Nagravision
Color range                    : Limited
Color primaries                : BT.709
Transfer characteristics       : BT.709
Matrix coefficients            : BT.709

Audio #1
ID                             : 120 (0x78)
Menu ID                        : 29952 (0x7500)
Format                         : AC-3
Format/Info                    : Audio Coding 3
Mode extension                 : CM (complete main)
Format settings, Endianness    : Big
Codec ID                       : 6
Duration                       : 45mn 9s
Bit rate mode                  : Constant
Bit rate                       : 192 Kbps
Channel(s)                     : 2 channels
Channel positions              : Front: L R
Sampling rate                  : 48.0 KHz
Compression mode               : Lossy
Delay relative to video        : 12ms
Stream size                    : 62.0 MiB (2%)
Language                       : Spanish
Language, more info            : Clean effects
Encryption                     : Nagravision

Audio #2
ID                             : 121 (0x79)
Menu ID                        : 29952 (0x7500)
Format                         : AC-3
Format/Info                    : Audio Coding 3
Mode extension                 : CM (complete main)
Format settings, Endianness    : Big
Codec ID                       : 6
Duration                       : 45mn 9s
Bit rate mode                  : Constant
Bit rate                       : 192 Kbps
Channel(s)                     : 2 channels
Channel positions              : Front: L R
Sampling rate                  : 48.0 KHz
Compression mode               : Lossy
Delay relative to video        : 27ms
Stream size                    : 62.0 MiB (2%)
Language                       : dos
Language, more info            : Clean effects
Encryption                     : Nagravision

Audio #3
ID                             : 122 (0x7A)
Menu ID                        : 29952 (0x7500)
Format                         : MPEG Audio
Format version                 : Version 1
Format profile                 : Layer 2
Mode                           : Joint stereo
Codec ID                       : 4
Duration                       : 45mn 9s
Bit rate mode                  : Constant
Bit rate                       : 128 Kbps
Channel(s)                     : 2 channels
Sampling rate                  : 48.0 KHz
Compression mode               : Lossy
Delay relative to video        : 178ms
Stream size                    : 41.3 MiB (1%)
Encryption                     : Nagravision

Audio #4
ID                             : 123 (0x7B)
Menu ID                        : 29952 (0x7500)
Format                         : MPEG Audio
Format version                 : Version 1
Format profile                 : Layer 2
Mode                           : Joint stereo
Codec ID                       : 4
Duration                       : 45mn 9s
Bit rate mode                  : Constant
Bit rate                       : 128 Kbps
Channel(s)                     : 2 channels
Sampling rate                  : 48.0 KHz
Compression mode               : Lossy
Delay relative to video        : 92ms
Stream size                    : 41.3 MiB (1%)
Encryption                     : Nagravision
Скриншоты

_________________
Bitcoin: 1C5RGE4438bq3VfVUEfcw63rmYrb6Sgr29
Profile PM

2013l


Стаж: 7 лет

Сообщений: 478

Торрент-статистика

post 20-Апр-2017 19:17 (спустя 4 часа)

Quote


Тут что ещё интересно, это не только этот канал, которому положено, публику подготавливает, но и обычные тоже. Меня лично даже успело в своё время достать слегка, что всюду эта игра, даже там где козалось ну совсем ей не место. Говорят сейчас о дерби Мадрида, но нет это не то совсем. Там очень важная и интересная игра для тех кто за спортом следит, тут это хоть конечно и не главное, но событие в жизни страны, ну как день трёх волхвов или очередного святова. Довелось наблюдать разок изнутри это и видил я такое ещё только в Уругвае перед месным классико и на день финала кубка Англии, хотя последний всёже сильно уступает и не тот уже сейчас. Я говорю о степени влияния события на жизнь обычных людей. Да наверно стоит упомянуть супербоул, но это всёже другое отношение к спорту, может даже более одыкватное.
Profile PM
Ответить на тему