Чемпионат Испании 2017-18 / La Liga / La Liga Show - 18.08.2017 / SKY Sports [18.08.2017., HD, 720p, H264, EN, SAT]

Ответить на тему

Автор Сообщение

Chameleon


Стаж: 12 лет

Сообщений: 4123

Откуда: Tyumen

Россия

Торрент-статистика

post 18-Авг-2017 18:22

Quote



Чемпионат Испании 2017-18 / La Liga / La Liga Show - 18.08.2017


Канал: SKY Sports.
Комментарий: Профессиональный.
Язык комментариев: Английский ().

Код:

Format                      : MPEG-4
Format profile              : Base Media
Codec ID                    : isom
File size                   : 424 MiB
Duration                    : 23mn 29s
Overall bit rate            : 2 523 Kbps

Video
ID                          : 1
Format                      : AVC
Format/Info                 : Advanced Video Codec
Format profile              : High@L3.1
Format settings, CABAC      : Yes
Format settings, ReFrames   : 3 frames
Codec ID                    : avc1
Codec ID/Info               : Advanced Video Coding
Duration                    : 23mn 29s
Bit rate                    : 2 250 Kbps
Width                       : 1 280 pixels
Height                      : 720 pixels
Display aspect ratio        : 16:9
Frame rate mode             : Constant
Frame rate                  : 25.000 fps
Color space                 : YUV
Chroma subsampling          : 4:2:0
Bit depth                   : 8 bits
Scan type                   : Progressive
Bits/(Pixel*Frame)          : 0.098
Stream size                 : 380 MiB (90%)
Writing library             : x264 core 142 r2455 021c0dc
Encoding settings           : cabac=1 / ref=4 / deblock=1:2:2 / analyse=0x3:0x113 / me=dia / subme=2 / psy=1 / psy_rd=1.00:0.00 / mixed_ref=1 / me_range=16 / chroma_me=1 / trellis=0 / 8x8dct=1 / cqm=0 / deadzone=21,11 / fast_pskip=1 / chroma_qp_offset=0 / threads=36 / lookahead_threads=5 / sliced_threads=0 / nr=0 / decimate=1 / interlaced=0 / bluray_compat=0 / constrained_intra=0 / bframes=3 / b_pyramid=1 / b_adapt=1 / b_bias=0 / direct=1 / weightb=1 / open_gop=0 / weightp=2 / keyint=60 / keyint_min=25 / scenecut=0 / intra_refresh=0 / rc_lookahead=40 / rc=abr / mbtree=1 / bitrate=2250 / ratetol=1.0 / qcomp=0.60 / qpmin=10 / qpmax=51 / qpstep=4 / ip_ratio=0.91 / aq=1:1.00
Tagged date                 : UTC 2017-08-18 03:41:14

Audio
ID                          : 2
Format                      : AAC
Format/Info                 : Advanced Audio Codec
Format profile              : LC
Codec ID                    : 40
Duration                    : 23mn 29s
Duration_FirstFrame         : 34ms
Duration_LastFrame          : -20ms
Bit rate mode               : Constant
Bit rate                    : 256 Kbps
Channel(s)                  : 2 channels
Channel positions           : Front: L R
Sampling rate               : 44.1 KHz
Compression mode            : Lossy
Stream size                 : 43.0 MiB (10%)
Tagged date                 : UTC 2017-08-18 03:41:14

Для поддержания дальнейших релизов можете сделать "пожертвование":
PayPal -> Pay
Skrill -> chameleon13@ro.ru
Yandex -> 410015480601949


_________________
Продам все матчи чемпионата Австралии, Ирана, Катара, Коста-Рики, Венесуэлы, Китая, Южной Кореи. Матчи Бразильских штатов.
Продам матчи. Подробности в ЛС.
PayPal -> chameleon13@ro.ru
Skrill -> chameleon13@ro.ru
Yandex -> 410015480601949
Profile PM
Ответить на тему