FC Barcelona - Season 2012-2013 - Celebración La Liga 2012-2013 / TV3HD+Esport3 [13.05.2013+19.05.2013, HD+SD, H264, CAT+ESP, HDTV]

Ответить на тему

Автор Сообщение

Heavy_serg


Стаж: 5 лет 9 месяцев

Сообщений: 1992

Откуда: Moscow

Россия

Торрент-статистика

post 23-Май-2013 00:16

Quote




FC Barcelona - Season 2012-2013 - Celebración La Liga 2012-2013
Чемпионский парад на улицах Барселоны (13.05.2013) + Празднования на Ноу Камп (19.05.2013)




Чемпионский парад на улицах Барселоны (13.05.2013):
La rua dels campions (TV3HD) - 4 файла - запись в HD (1080i) от канала TV3HD
La rua dels campions (Esport3) - 2 файла - запись в SD (576i) от канала Esport3
Празднования на Ноу Камп (19.05.2013):
Celebración Liga 2012-2013 Camp Nou (TV3HD) - 1 файл - запись в HD (1080i) от канала TV3HD


Слова благодарности человеку из ZURICH (SWITZERLAND) по имени PAOLO el Culé ITALIANO с форума barcaforum.com, который выложил данный материал


Характеристики каждого файла в раздаче:

1. La rua dels campions (TV3HD).ts - 33mn 14 s
2. La rua dels campions (TV3HD).ts - 37mn 40 s
3. La rua dels campions (TV3HD).ts - 42mn 56 s
4. La rua dels campions (TV3HD).ts - 29mn 36 s
Видео: 1920x1080 (16/9), 25.000 fps, 12.6 Mbps, MPEG-TS
Аудио 1: Catalan, AC3, 128 Kbps, 48.0 KHz, 2 channels
Аудио 2: V.O., AC3, 96 Kbps, 48.0 KHz, 1 channels
Аудио 3: A.D., AC3, 96 Kbps, 48.0 KHz, 1 channels
Субтитры 1: Teletext, Catalan
Субтитры 2: DVB Subtitle, Catalan

5. La rua dels campions (Esport3).ts - 44mn 07 s
6. La rua dels campions (Esport3).ts - 13mn 42 s
Видео: 720x576 (16/9), 25.000 fps, 4.1 Mbps, MPEG Video
Аудио 1: Catalan, MPEG Audio, 160 Kbps, 48.0 KHz, 2 channels
Аудио 2: V.O., MPEG Audio, 96 Kbps, 48.0 KHz, 1 channels
Аудио 3: A.D., MPEG Audio, 96 Kbps, 48.0 KHz, 1 channels
Субтитры: Teletext, Catalan

7. Celebración Liga 2012-2013 Camp Nou (TV3HD).ts - 39mn 00 s
Видео: 1920x1080 (16/9), 25.000 fps, 12.8 Mbps, MPEG-TS
Аудио 1: Catalan, AC3, 128 Kbps, 48.0 KHz, 2 channels
Аудио 2: V.O., AC3, 96 Kbps, 48.0 KHz, 1 channels
Аудио 3: A.D., AC3, 96 Kbps, 48.0 KHz, 1 channels
Субтитры 1: Teletext, Catalan
Субтитры 2: DVB Subtitle, Catalan











Новая форма сезона 2013 - 2014
«Барселона» представила новую экипировку к предстоящему сезону. Основная футболка будет выполнена в чередующихся вертикальных полосах сине-гранатового цвета. Второй вариант будет оформлен на мотив саньеры - флага Каталонии. Главным отличием основного варианта футболки станет выполнение воротника в виде треугольной формы желтого цвета. На его внутренней стороне будет нанесен девиз «Барсы»: «Больше, чем клуб». Трусы будут выполнены в синих тонах. Второй вариант футболок 2013/14 окрашен в желто-оранжевые цвета, символизирующие флаг Каталонии. При этом воротник будет отличаться, и иметь округлую форму. Первая экипировка поступит в продажу уже в четверг, а вторую болельщики смогут приобрести не раньше июня. Официальный сайт клуба сообщает, что компания Nike изготовила экипировку из полиэстера с учетом новых технологий. Так на изготовление одного комплекта футболки и трусов ушло до 13 переработанных пластиковых бутылок. При этом, начиная с 2010 года, Nike удалось задействовать в производстве более 1 млрд. пластиковых бутылок. Общий вес футболки лишь 150 грамм, что на 23 % легче предыдущего варианта. Кроме того, благодаря использованию особого материала и технологии Nike Dri-Fit футболка на 20 % прочнее и гибче.

_________________
Mes Que Un Club


Последний раз редактировалось: Heavy_serg (2013-05-27 20:34), всего редактировалось 2 раз(а)
Profile PM

Heavy_serg


Стаж: 5 лет 9 месяцев

Сообщений: 1992

Откуда: Moscow

Россия

Торрент-статистика

post 23-Май-2013 00:21 (спустя 4 минуты)

Quote


D:\Downloads\FC Barcelona - Celebracion Liga 2012-2013 (1080i and 576i, TS)\1. La rua dels campions (TV3HD).ts
General #1
ID : 1 (0x1)
Complete name : D:\Downloads\FC Barcelona - Celebracion Liga 2012-2013 (1080i and 576i, TS)\1. La rua dels campions (TV3HD).ts
Format : MPEG-TS
File size : 3.15 GiB
Duration : 33mn 14s
Overall bit rate mode : Variable
Overall bit rate : 13.6 Mbps
Network name : TELEVISIO DE CATALUNYA
Original network name : Spanish Digital Terrestrial Television
Video #191
ID : 191 (0xBF)
Menu ID : 813 (0x32D)
Format : AVC
Format/Info : Advanced Video Codec
Format profile : High@L4.0
Format settings, CABAC : Yes
Format settings, ReFrames : 4 frames
Codec ID : 27
Duration : 33mn 12s
Bit rate : 12.6 Mbps
Width : 1 920 pixels
Height : 1 080 pixels
Display aspect ratio : 16:9
Frame rate : 25.000 fps
Color space : YUV
Chroma subsampling : 4:2:0
Bit depth : 8 bits
Scan type : MBAFF
Bits/(Pixel*Frame) : 0.243
Stream size : 2.92 GiB (93%)
Color primaries : BT.709
Transfer characteristics : BT.709
Matrix coefficients : BT.709
Audio #192
ID : 192 (0xC0)
Menu ID : 813 (0x32D)
Format : E-AC-3
Format/Info : Audio Coding 3
Format settings, Endianness : Big
Codec ID : 6
Duration : 33mn 14s
Bit rate mode : Constant
Bit rate : 128 Kbps
Channel(s) : 2 channels
Channel positions : Front: L R
Sampling rate : 48.0 KHz
Compression mode : Lossy
Delay relative to video : -816ms
Stream size : 30.4 MiB (1%)
Language : Catalan
Audio #194
ID : 194 (0xC2)
Menu ID : 813 (0x32D)
Format : AC-3
Format/Info : Audio Coding 3
Mode extension : CM (complete main)
Format settings, Endianness : Big
Codec ID : 6
Duration : 33mn 14s
Bit rate mode : Constant
Bit rate : 96.0 Kbps
Channel(s) : 1 channel
Channel positions : Front: C
Sampling rate : 48.0 KHz
Bit depth : 16 bits
Compression mode : Lossy
Delay relative to video : -754ms
Stream size : 22.8 MiB (1%)
Language : v.o
Audio #196
ID : 196 (0xC4)
Menu ID : 813 (0x32D)
Format : MPEG Audio
Format version : Version 1
Format profile : Layer 2
Codec ID : 3
Duration : 33mn 14s
Bit rate mode : Constant
Bit rate : 96.0 Kbps
Channel(s) : 1 channel
Sampling rate : 48.0 KHz
Compression mode : Lossy
Delay relative to video : -808ms
Stream size : 22.8 MiB (1%)
Language : a.d
Text #203-100
ID : 203 (0xCB)-100
Menu ID : 813 (0x32D)
Format : Teletext
Language : Catalan
Text #805
ID : 805 (0x325)
Menu ID : 813 (0x32D)
Format : DVB Subtitle
Codec ID : 6
Language : Catalan
D:\Downloads\FC Barcelona - Celebracion Liga 2012-2013 (1080i and 576i, TS)\2. La rua dels campions (TV3HD).ts
General #1
ID : 1 (0x1)
Complete name : D:\Downloads\FC Barcelona - Celebracion Liga 2012-2013 (1080i and 576i, TS)\2. La rua dels campions (TV3HD).ts
Format : MPEG-TS
File size : 3.61 GiB
Duration : 37mn 40s
Overall bit rate mode : Variable
Overall bit rate : 13.7 Mbps
Network name : TELEVISIO DE CATALUNYA
Original network name : Spanish Digital Terrestrial Television
Video #191
ID : 191 (0xBF)
Menu ID : 813 (0x32D)
Format : AVC
Format/Info : Advanced Video Codec
Format profile : High@L4.0
Format settings, CABAC : Yes
Format settings, ReFrames : 4 frames
Codec ID : 27
Duration : 37mn 39s
Bit rate : 12.7 Mbps
Width : 1 920 pixels
Height : 1 080 pixels
Display aspect ratio : 16:9
Frame rate : 25.000 fps
Color space : YUV
Chroma subsampling : 4:2:0
Bit depth : 8 bits
Scan type : Interlaced
Scan order : Top Field First
Bits/(Pixel*Frame) : 0.246
Stream size : 3.35 GiB (93%)
Color primaries : BT.709
Transfer characteristics : BT.709
Matrix coefficients : BT.709
Audio #192
ID : 192 (0xC0)
Menu ID : 813 (0x32D)
Format : E-AC-3
Format/Info : Audio Coding 3
Format settings, Endianness : Big
Codec ID : 6
Duration : 37mn 40s
Bit rate mode : Constant
Bit rate : 128 Kbps
Channel(s) : 2 channels
Channel positions : Front: L R
Sampling rate : 48.0 KHz
Compression mode : Lossy
Delay relative to video : -576ms
Stream size : 34.5 MiB (1%)
Language : Catalan
Audio #194
ID : 194 (0xC2)
Menu ID : 813 (0x32D)
Format : AC-3
Format/Info : Audio Coding 3
Mode extension : CM (complete main)
Format settings, Endianness : Big
Codec ID : 6
Duration : 37mn 40s
Bit rate mode : Constant
Bit rate : 96.0 Kbps
Channel(s) : 1 channel
Channel positions : Front: C
Sampling rate : 48.0 KHz
Bit depth : 16 bits
Compression mode : Lossy
Delay relative to video : -354ms
Stream size : 25.9 MiB (1%)
Language : v.o
Audio #196
ID : 196 (0xC4)
Menu ID : 813 (0x32D)
Format : MPEG Audio
Format version : Version 1
Format profile : Layer 2
Codec ID : 3
Duration : 37mn 40s
Bit rate mode : Constant
Bit rate : 96.0 Kbps
Channel(s) : 1 channel
Sampling rate : 48.0 KHz
Compression mode : Lossy
Delay relative to video : -568ms
Stream size : 25.9 MiB (1%)
Language : a.d
Text #203-100
ID : 203 (0xCB)-100
Menu ID : 813 (0x32D)
Format : Teletext
Language : Catalan
Text #805
ID : 805 (0x325)
Menu ID : 813 (0x32D)
Format : DVB Subtitle
Codec ID : 6
Duration : 37mn 27s
Delay relative to video : 7s 838ms
Language : Catalan
D:\Downloads\FC Barcelona - Celebracion Liga 2012-2013 (1080i and 576i, TS)\3. La rua dels campions (TV3HD).ts
General #1
ID : 1 (0x1)
Complete name : D:\Downloads\FC Barcelona - Celebracion Liga 2012-2013 (1080i and 576i, TS)\3. La rua dels campions (TV3HD).ts
Format : MPEG-TS
File size : 4.12 GiB
Duration : 42mn 56s
Overall bit rate mode : Variable
Overall bit rate : 13.7 Mbps
Network name : TELEVISIO DE CATALUNYA
Original network name : Spanish Digital Terrestrial Television
Video #191
ID : 191 (0xBF)
Menu ID : 813 (0x32D)
Format : AVC
Format/Info : Advanced Video Codec
Format profile : High@L4.0
Format settings, CABAC : Yes
Format settings, ReFrames : 4 frames
Codec ID : 27
Duration : 42mn 55s
Bit rate : 12.7 Mbps
Width : 1 920 pixels
Height : 1 080 pixels
Display aspect ratio : 16:9
Frame rate : 25.000 fps
Color space : YUV
Chroma subsampling : 4:2:0
Bit depth : 8 bits
Scan type : MBAFF
Bits/(Pixel*Frame) : 0.246
Stream size : 3.82 GiB (93%)
Color primaries : BT.709
Transfer characteristics : BT.709
Matrix coefficients : BT.709
Audio #192
ID : 192 (0xC0)
Menu ID : 813 (0x32D)
Format : E-AC-3
Format/Info : Audio Coding 3
Format settings, Endianness : Big
Codec ID : 6
Duration : 42mn 56s
Bit rate mode : Constant
Bit rate : 128 Kbps
Channel(s) : 2 channels
Channel positions : Front: L R
Sampling rate : 48.0 KHz
Compression mode : Lossy
Delay relative to video : -920ms
Stream size : 39.3 MiB (1%)
Language : Catalan
Audio #194
ID : 194 (0xC2)
Menu ID : 813 (0x32D)
Format : AC-3
Format/Info : Audio Coding 3
Mode extension : CM (complete main)
Format settings, Endianness : Big
Codec ID : 6
Duration : 42mn 56s
Bit rate mode : Constant
Bit rate : 96.0 Kbps
Channel(s) : 1 channel
Channel positions : Front: C
Sampling rate : 48.0 KHz
Bit depth : 16 bits
Compression mode : Lossy
Delay relative to video : -826ms
Stream size : 29.5 MiB (1%)
Language : v.o
Audio #196
ID : 196 (0xC4)
Menu ID : 813 (0x32D)
Format : MPEG Audio
Format version : Version 1
Format profile : Layer 2
Codec ID : 3
Duration : 42mn 56s
Bit rate mode : Constant
Bit rate : 96.0 Kbps
Channel(s) : 1 channel
Sampling rate : 48.0 KHz
Compression mode : Lossy
Delay relative to video : -968ms
Stream size : 29.5 MiB (1%)
Language : a.d
Text #203-100
ID : 203 (0xCB)-100
Menu ID : 813 (0x32D)
Format : Teletext
Language : Catalan
Text #805
ID : 805 (0x325)
Menu ID : 813 (0x32D)
Format : DVB Subtitle
Codec ID : 6
Duration : 42mn 51s
Delay relative to video : 3s 846ms
Language : Catalan
D:\Downloads\FC Barcelona - Celebracion Liga 2012-2013 (1080i and 576i, TS)\4. La rua dels campions (TV3HD).ts
General #1
ID : 1 (0x1)
Complete name : D:\Downloads\FC Barcelona - Celebracion Liga 2012-2013 (1080i and 576i, TS)\4. La rua dels campions (TV3HD).ts
Format : MPEG-TS
File size : 2.84 GiB
Duration : 29mn 36s
Overall bit rate mode : Variable
Overall bit rate : 13.7 Mbps
Network name : TELEVISIO DE CATALUNYA
Original network name : Spanish Digital Terrestrial Television
Video #191
ID : 191 (0xBF)
Menu ID : 813 (0x32D)
Format : AVC
Format/Info : Advanced Video Codec
Format profile : High@L4.0
Format settings, CABAC : Yes
Format settings, ReFrames : 4 frames
Codec ID : 27
Duration : 29mn 35s
Bit rate : 12.7 Mbps
Width : 1 920 pixels
Height : 1 080 pixels
Display aspect ratio : 16:9
Frame rate : 25.000 fps
Color space : YUV
Chroma subsampling : 4:2:0
Bit depth : 8 bits
Scan type : MBAFF
Bits/(Pixel*Frame) : 0.246
Stream size : 2.63 GiB (93%)
Color primaries : BT.709
Transfer characteristics : BT.709
Matrix coefficients : BT.709
Audio #192
ID : 192 (0xC0)
Menu ID : 813 (0x32D)
Format : E-AC-3
Format/Info : Audio Coding 3
Format settings, Endianness : Big
Codec ID : 6
Duration : 29mn 36s
Bit rate mode : Constant
Bit rate : 128 Kbps
Channel(s) : 2 channels
Channel positions : Front: L R
Sampling rate : 48.0 KHz
Compression mode : Lossy
Delay relative to video : -832ms
Stream size : 27.1 MiB (1%)
Language : Catalan
Audio #194
ID : 194 (0xC2)
Menu ID : 813 (0x32D)
Format : AC-3
Format/Info : Audio Coding 3
Mode extension : CM (complete main)
Format settings, Endianness : Big
Codec ID : 6
Duration : 29mn 36s
Bit rate mode : Constant
Bit rate : 96.0 Kbps
Channel(s) : 1 channel
Channel positions : Front: C
Sampling rate : 48.0 KHz
Bit depth : 16 bits
Compression mode : Lossy
Delay relative to video : -642ms
Stream size : 20.3 MiB (1%)
Language : v.o
Audio #196
ID : 196 (0xC4)
Menu ID : 813 (0x32D)
Format : MPEG Audio
Format version : Version 1
Format profile : Layer 2
Codec ID : 3
Duration : 29mn 36s
Bit rate mode : Constant
Bit rate : 96.0 Kbps
Channel(s) : 1 channel
Sampling rate : 48.0 KHz
Compression mode : Lossy
Delay relative to video : -808ms
Stream size : 20.3 MiB (1%)
Language : a.d
Text #203-100
ID : 203 (0xCB)-100
Menu ID : 813 (0x32D)
Format : Teletext
Language : Catalan
Text #805
ID : 805 (0x325)
Menu ID : 813 (0x32D)
Format : DVB Subtitle
Codec ID : 6
Duration : 29mn 25s
Delay relative to video : 11s 976ms
Language : Catalan
D:\Downloads\FC Barcelona - Celebracion Liga 2012-2013 (1080i and 576i, TS)\5. La rua dels campions (Esport3).ts
General #1
ID : 1 (0x1)
Complete name : D:\Downloads\FC Barcelona - Celebracion Liga 2012-2013 (1080i and 576i, TS)\5. La rua dels campions (Esport3).ts
Format : MPEG-TS
File size : 1.49 GiB
Duration : 44mn 7s
Overall bit rate mode : Variable
Overall bit rate : 4 829 Kbps
Network name : TELEVISIO DE CATALUNYA
Original network name : Spanish Digital Terrestrial Television
Video #141
ID : 141 (0x8D)
Menu ID : 804 (0x324)
Format : MPEG Video
Format version : Version 2
Format profile : Main@Main
Format settings, BVOP : Yes
Format settings, Matrix : Custom
Format settings, GOP : M=3, N=21
Codec ID : 2
Duration : 44mn 7s
Bit rate mode : Variable
Bit rate : 4 235 Kbps
Maximum bit rate : 15.0 Mbps
Width : 720 pixels
Height : 576 pixels
Display aspect ratio : 16:9
Frame rate : 25.000 fps
Standard : PAL
Color space : YUV
Chroma subsampling : 4:2:0
Bit depth : 8 bits
Scan type : Interlaced
Scan order : Top Field First
Compression mode : Lossy
Bits/(Pixel*Frame) : 0.408
Stream size : 1.31 GiB (88%)
Audio #142
ID : 142 (0x8E)
Menu ID : 804 (0x324)
Format : MPEG Audio
Format version : Version 1
Format profile : Layer 2
Mode : Joint stereo
Codec ID : 3
Duration : 44mn 6s
Bit rate mode : Constant
Bit rate : 160 Kbps
Channel(s) : 2 channels
Sampling rate : 48.0 KHz
Compression mode : Lossy
Delay relative to video : -164ms
Stream size : 50.5 MiB (3%)
Language : Catalan
Audio #144
ID : 144 (0x90)
Menu ID : 804 (0x324)
Format : MPEG Audio
Format version : Version 1
Format profile : Layer 2
Codec ID : 3
Duration : 44mn 6s
Bit rate mode : Constant
Bit rate : 96.0 Kbps
Channel(s) : 1 channel
Sampling rate : 48.0 KHz
Compression mode : Lossy
Delay relative to video : -212ms
Stream size : 30.3 MiB (2%)
Language : v.o
Audio #146
ID : 146 (0x92)
Menu ID : 804 (0x324)
Format : MPEG Audio
Format version : Version 1
Format profile : Layer 2
Codec ID : 3
Duration : 44mn 6s
Bit rate mode : Constant
Bit rate : 96.0 Kbps
Channel(s) : 1 channel
Sampling rate : 48.0 KHz
Compression mode : Lossy
Delay relative to video : -260ms
Stream size : 30.3 MiB (2%)
Language : a.d
Text #143-100
ID : 143 (0x8F)-100
Menu ID : 804 (0x324)
Format : Teletext
Language : Catalan
D:\Downloads\FC Barcelona - Celebracion Liga 2012-2013 (1080i and 576i, TS)\6. La rua dels campions (Esport3).ts
General #1
ID : 1 (0x1)
Complete name : D:\Downloads\FC Barcelona - Celebracion Liga 2012-2013 (1080i and 576i, TS)\6. La rua dels campions (Esport3).ts
Format : MPEG-TS
File size : 455 MiB
Duration : 13mn 42s
Overall bit rate mode : Variable
Overall bit rate : 4 640 Kbps
Network name : TELEVISIO DE CATALUNYA
Original network name : Spanish Digital Terrestrial Television
Video #141
ID : 141 (0x8D)
Menu ID : 804 (0x324)
Format : MPEG Video
Format version : Version 2
Format profile : Main@Main
Format settings, BVOP : Yes
Format settings, Matrix : Custom
Format settings, GOP : M=3, N=21
Codec ID : 2
Duration : 13mn 41s
Bit rate mode : Variable
Bit rate : 4 055 Kbps
Maximum bit rate : 15.0 Mbps
Width : 720 pixels
Height : 576 pixels
Display aspect ratio : 16:9
Frame rate : 25.000 fps
Standard : PAL
Color space : YUV
Chroma subsampling : 4:2:0
Bit depth : 8 bits
Scan type : Interlaced
Scan order : Top Field First
Compression mode : Lossy
Bits/(Pixel*Frame) : 0.391
Stream size : 397 MiB (87%)
Audio #142
ID : 142 (0x8E)
Menu ID : 804 (0x324)
Format : MPEG Audio
Format version : Version 1
Format profile : Layer 2
Mode : Joint stereo
Codec ID : 3
Duration : 13mn 42s
Bit rate mode : Constant
Bit rate : 160 Kbps
Channel(s) : 2 channels
Sampling rate : 48.0 KHz
Compression mode : Lossy
Delay relative to video : -403ms
Stream size : 15.7 MiB (3%)
Language : Catalan
Audio #144
ID : 144 (0x90)
Menu ID : 804 (0x324)
Format : MPEG Audio
Format version : Version 1
Format profile : Layer 2
Codec ID : 3
Duration : 13mn 42s
Bit rate mode : Constant
Bit rate : 96.0 Kbps
Channel(s) : 1 channel
Sampling rate : 48.0 KHz
Compression mode : Lossy
Delay relative to video : -331ms
Stream size : 9.41 MiB (2%)
Language : v.o
Audio #146
ID : 146 (0x92)
Menu ID : 804 (0x324)
Format : MPEG Audio
Format version : Version 1
Format profile : Layer 2
Codec ID : 3
Duration : 13mn 42s
Bit rate mode : Constant
Bit rate : 96.0 Kbps
Channel(s) : 1 channel
Sampling rate : 48.0 KHz
Compression mode : Lossy
Delay relative to video : -379ms
Stream size : 9.41 MiB (2%)
Language : a.d
Text #143-100
ID : 143 (0x8F)-100
Menu ID : 804 (0x324)
Format : Teletext
Language : Catalan
Text #804
ID : 804 (0x324)
Menu ID : 804 (0x324)
Format : DVB Subtitle
Codec ID : 6
Duration : 13mn 28s
Delay relative to video : 7s 614ms
Language : Catalan
D:\Downloads\FC Barcelona - Celebracion Liga 2012-2013 (1080i and 576i, TS)\7. Celebracion Liga 2012-2013 Camp Nou (TV3HD).ts
General #1
ID : 1 (0x1)
Complete name : D:\Downloads\FC Barcelona - Celebracion Liga 2012-2013 (1080i and 576i, TS)\7. Celebracion Liga 2012-2013 Camp Nou (TV3HD).ts
Format : MPEG-TS
File size : 3.75 GiB
Duration : 39mn 0s
Overall bit rate mode : Variable
Overall bit rate : 13.8 Mbps
Network name : TELEVISIO DE CATALUNYA
Original network name : Spanish Digital Terrestrial Television
Video #191
ID : 191 (0xBF)
Menu ID : 813 (0x32D)
Format : AVC
Format/Info : Advanced Video Codec
Format profile : High@L4.0
Format settings, CABAC : Yes
Format settings, ReFrames : 4 frames
Codec ID : 27
Duration : 39mn 0s
Bit rate : 12.8 Mbps
Width : 1 920 pixels
Height : 1 080 pixels
Display aspect ratio : 16:9
Frame rate : 25.000 fps
Color space : YUV
Chroma subsampling : 4:2:0
Bit depth : 8 bits
Scan type : MBAFF
Scan order : Top Field First
Bits/(Pixel*Frame) : 0.246
Stream size : 3.48 GiB (93%)
Color primaries : BT.709
Transfer characteristics : BT.709
Matrix coefficients : BT.709
Audio #192
ID : 192 (0xC0)
Menu ID : 813 (0x32D)
Format : E-AC-3
Format/Info : Audio Coding 3
Format settings, Endianness : Big
Codec ID : 6
Duration : 39mn 0s
Bit rate mode : Constant
Bit rate : 128 Kbps
Channel(s) : 2 channels
Channel positions : Front: L R
Sampling rate : 48.0 KHz
Compression mode : Lossy
Delay relative to video : -795ms
Stream size : 35.7 MiB (1%)
Language : Catalan
Audio #194
ID : 194 (0xC2)
Menu ID : 813 (0x32D)
Format : AC-3
Format/Info : Audio Coding 3
Mode extension : CM (complete main)
Format settings, Endianness : Big
Codec ID : 6
Duration : 39mn 0s
Bit rate mode : Constant
Bit rate : 96.0 Kbps
Channel(s) : 1 channel
Channel positions : Front: C
Sampling rate : 48.0 KHz
Bit depth : 16 bits
Compression mode : Lossy
Delay relative to video : -733ms
Stream size : 26.8 MiB (1%)
Language : v.o
Audio #196
ID : 196 (0xC4)
Menu ID : 813 (0x32D)
Format : MPEG Audio
Format version : Version 1
Format profile : Layer 2
Codec ID : 3
Duration : 39mn 0s
Bit rate mode : Constant
Bit rate : 96.0 Kbps
Channel(s) : 1 channel
Sampling rate : 48.0 KHz
Compression mode : Lossy
Delay relative to video : -747ms
Stream size : 26.8 MiB (1%)
Language : a.d
Text #203-100
ID : 203 (0xCB)-100
Menu ID : 813 (0x32D)
Format : Teletext
Language : Catalan
Text #805
ID : 805 (0x325)
Menu ID : 813 (0x32D)
Format : DVB Subtitle
Codec ID : 6
Duration : 38mn 55s
Delay relative to video : 3s 156ms
Language : Catalan

_________________
Mes Que Un Club
Profile PM

SNEPERS


Стаж: 5 лет 10 месяцев

Сообщений: 159

Откуда: Киев

Украина

Торрент-статистика

post 23-Май-2013 21:02 (спустя 20 часов)

Quote


Big thanks !
Profile PM

sivanych


Стаж: 3 года 8 месяцев

Сообщений: 139

Откуда: Первая столица

Украина

Торрент-статистика

post 10-Сен-2013 17:31 (спустя 3 месяца 17 дней)

Quote


Muchas gracias por la publicación.

_________________
Profile PM

SNEPERS


Стаж: 5 лет 10 месяцев

Сообщений: 159

Откуда: Киев

Украина

Торрент-статистика

post 15-Фев-2014 21:19 (спустя 5 месяцев 5 дней)

Quote


Станьте на раздачу плз !
Profile PM
Ответить на тему