FC Barcelona - Season 2012-2013 - Celebración La Liga 2012-2013 - Camp Nou Сeremonia / CANAL+1 HD [19.05.2013, 720p, x264, HDTVRip]

Ответить на тему

Автор Сообщение

Heavy_serg


Стаж: 5 лет 9 месяцев

Сообщений: 1994

Откуда: Moscow

Россия

Торрент-статистика

post 27-Май-2013 18:15

Quote




FC Barcelona - Season 2012-2013 - Celebración La Liga 2012-2013
Празднования на Ноу Камп (19.05.2013)




Продолжительность
00:42:48


Качество: HDTVRip / Формат: MKV / Видео Кодек: H.264 / Аудио Кодек: AC3
Видео: 1280x720 (16/9), 25,000fps, ~2.6 Мбит/сек / Аудио: 384 Kbps, 48 KHz, 2 channels


D:\Downloads\FC Barcelona - Celebracion Liga 2012-2013 - Nou Camp (720p, mkv) [rgfootball.net]\FC Barcelona - Celebracion La Liga 2012-2013 - Camp Nou Ñeremonia (CANAL+1 HD) 720p.mkv
General
Unique ID : 191100066581923020468194668596832728709 (0x8FC488B82F8F752BA72BA82C9D737685)
Complete name : D:\Downloads\FC Barcelona - Celebracion Liga 2012-2013 - Nou Camp (720p, mkv) [rgfootball.net]\FC Barcelona - Celebracion La Liga 2012-2013 - Camp Nou Ñeremonia (CANAL+1 HD) 720p.mkv
Format : Matroska
Format version : Version 4 / Version 2
File size : 930 MiB
Duration : 42mn 48s
Overall bit rate : 3 037 Kbps
Encoded date : UTC 2013-05-19 22:28:03
Writing application : mkvmerge v6.2.0 ('Promised Land') built on Apr 28 2013 12:22:01
Writing library : libebml v1.3.0 + libmatroska v1.4.0
Video #1
ID : 1
Format : AVC
Format/Info : Advanced Video Codec
Format profile : High@L3.1
Format settings, CABAC : Yes
Format settings, ReFrames : 4 frames
Codec ID : V_MPEG4/ISO/AVC
Duration : 42mn 48s
Bit rate : 2 593 Kbps
Width : 1 280 pixels
Height : 720 pixels
Display aspect ratio : 16:9
Frame rate mode : Constant
Frame rate : 25.000 fps
Color space : YUV
Chroma subsampling : 4:2:0
Bit depth : 8 bits
Scan type : Progressive
Bits/(Pixel*Frame) : 0.113
Stream size : 794 MiB (85%)
Writing library : x264 core 130 r2273 b3065e6
Encoding settings : cabac=1 / ref=4 / deblock=1:-1:-1 / analyse=0x3:0x113 / me=umh / subme=8 / psy=1 / psy_rd=1.00:0.00 / mixed_ref=1 / me_range=32 / chroma_me=1 / trellis=2 / 8x8dct=1 / cqm=0 / deadzone=21,11 / fast_pskip=1 / chroma_qp_offset=-2 / threads=8 / lookahead_threads=1 / sliced_threads=0 / nr=0 / decimate=1 / interlaced=0 / bluray_compat=0 / constrained_intra=0 / bframes=3 / b_pyramid=2 / b_adapt=1 / b_bias=0 / direct=1 / weightb=1 / open_gop=0 / weightp=2 / keyint=250 / keyint_min=25 / scenecut=40 / intra_refresh=0 / rc_lookahead=40 / rc=crf / mbtree=1 / crf=26.0 / qcomp=0.60 / qpmin=0 / qpmax=69 / qpstep=4 / ip_ratio=1.40 / aq=1:1.00
Default : Yes
Forced : No
Audio #2
ID : 2
Format : AC-3
Format/Info : Audio Coding 3
Mode extension : CM (complete main)
Format settings, Endianness : Big
Codec ID : A_AC3
Duration : 42mn 48s
Bit rate mode : Constant
Bit rate : 384 Kbps
Channel(s) : 2 channels
Channel positions : Front: L R
Sampling rate : 48.0 KHz
Bit depth : 16 bits
Compression mode : Lossy
Stream size : 118 MiB (13%)
Default : Yes
Forced : No




Новая форма сезона 2013 - 2014
«Барселона» представила новую экипировку к предстоящему сезону. Основная футболка будет выполнена в чередующихся вертикальных полосах сине-гранатового цвета. Второй вариант будет оформлен на мотив саньеры - флага Каталонии. Главным отличием основного варианта футболки станет выполнение воротника в виде треугольной формы желтого цвета. На его внутренней стороне будет нанесен девиз «Барсы»: «Больше, чем клуб». Трусы будут выполнены в синих тонах. Второй вариант футболок 2013/14 окрашен в желто-оранжевые цвета, символизирующие флаг Каталонии. При этом воротник будет отличаться, и иметь округлую форму. Первая экипировка поступит в продажу уже в четверг, а вторую болельщики смогут приобрести не раньше июня. Официальный сайт клуба сообщает, что компания Nike изготовила экипировку из полиэстера с учетом новых технологий. Так на изготовление одного комплекта футболки и трусов ушло до 13 переработанных пластиковых бутылок. При этом, начиная с 2010 года, Nike удалось задействовать в производстве более 1 млрд. пластиковых бутылок. Общий вес футболки лишь 150 грамм, что на 23 % легче предыдущего варианта. Кроме того, благодаря использованию особого материала и технологии Nike Dri-Fit футболка на 20 % прочнее и гибче.

_________________
Mes Que Un Club
Profile PM
Ответить на тему