Лига Чемпионов 2016-17/ 1/8 финала. Первые матчи. 3-й день / Liga Mistrzów Skróty / Canal+ HD [21.02.2017, 1080i, H.264, POL, HDTV, SAT]

Ответить на тему

Автор Сообщение

K. Valera


Стаж: 6 лет 5 месяцев

Сообщений: 880

Украина

Торрент-статистика

post 22-Фев-2017 11:21

Quote


Лига Чемпионов 2016-17/ 1/8 финала. Первые матчи. 3-й день / Liga Mistrzów Skróty / Canal+ HD




Год выпуска: 21.02.2017
Вид : Футбол
Релиз:
Aвтор рипа: K. Valera
Продолжительность: 01:01:24
Канал:
Комментарий: Профессиональный
Язык комментариев: Польский
Качество: HDTV / Формат: *.ts / Видео Кодек: AVC / Аудио Кодек: AC-3
Видео: 1920x1080 (16/9), 25,000 fps, 9 108 Kbps
Аудио 1: 384 Kbps, 48 KHz, AC-3 2.0 channels Polish
Аудио 2: 384 Kbps, 48 KHz, AC-3 2.0 channels Polish
Запись видео: Openbox SX6 HD
Программа корректировки видео: Cypheros TS-Doctor ver. 1.2.22

Код:

General
ID                             : 400 (0x190)
Complete name                  : D:\111\Liga Mistrzów Skróty 1-8 1R 2017.ts
Format                         : MPEG-TS
File size                      : 4.46 GiB
Duration                       : 1h 1mn
Overall bit rate mode          : Variable
Overall bit rate               : 10.4 Mbps

Video
ID                             : 359 (0x167)
Menu ID                        : 13040 (0x32F0)
Format                         : AVC
Format/Info                    : Advanced Video Codec
Format profile                 : Main@L4
Format settings, CABAC         : Yes
Format settings, ReFrames      : 3 frames
Codec ID                       : 27
Duration                       : 1h 1mn
Bit rate                       : 9 108 Kbps
Width                          : 1 920 pixels
Height                         : 1 080 pixels
Display aspect ratio           : 16:9
Frame rate                     : 25.000 fps
Standard                       : Component
Color space                    : YUV
Chroma subsampling             : 4:2:0
Bit depth                      : 8 bits
Scan type                      : Interlaced
Scan order                     : Top Field First
Bits/(Pixel*Frame)             : 0.176
Stream size                    : 3.91 GiB (88%)
Encryption                     : Encrypted
Color range                    : Limited
Color primaries                : BT.601 PAL
Transfer characteristics       : BT.470 System B, BT.470 System G
Matrix coefficients            : BT.601

Audio #1
ID                             : 376 (0x178)
Menu ID                        : 13040 (0x32F0)
Format                         : AC-3
Format/Info                    : Audio Coding 3
Mode extension                 : CM (complete main)
Format settings, Endianness    : Big
Codec ID                       : 6
Duration                       : 1h 1mn
Bit rate mode                  : Constant
Bit rate                       : 384 Kbps
Channel(s)                     : 2 channels
Channel positions              : Front: L R
Sampling rate                  : 48.0 KHz
Compression mode               : Lossy
Delay relative to video        : 90ms
Stream size                    : 169 MiB (4%)
Language                       : Polish
Encryption                     : Encrypted

Audio #2
ID                             : 377 (0x179)
Menu ID                        : 13040 (0x32F0)
Format                         : AC-3
Format/Info                    : Audio Coding 3
Mode extension                 : CM (complete main)
Format settings, Endianness    : Big
Codec ID                       : 6
Duration                       : 1h 1mn
Bit rate mode                  : Constant
Bit rate                       : 384 Kbps
Channel(s)                     : 2 channels
Channel positions              : Front: L R
Sampling rate                  : 48.0 KHz
Compression mode               : Lossy
Delay relative to video        : 59ms
Stream size                    : 169 MiB (4%)
Language                       : English
Encryption                     : Encrypted
Скриншоты

_________________
Bitcoin: 1C5RGE4438bq3VfVUEfcw63rmYrb6Sgr29
Profile PM
Ответить на тему