Чемпионат России 2014-15 / 5-й тур / Уфа - Спартак / НТВ+ [23.08.2014, 1080p, 50 fps, H.264, RU, SATRip]

Ответить на тему

Автор Сообщение

Jora879


Стаж: 6 лет

Сообщений: 350

Откуда: остров Святой Елены

О.Святой Елены

Торрент-статистика

post 23-Авг-2014 15:53

Quote


Чемпионат России 2014-15 / 5-й тур / Уфа - Спартак / НТВ+

    Год Выпуска: 2014
    Вид Спорта: Футбол
    Продолжительность: 46mn 49s + 51mn 32s
    Описание: Пермь, стадион Звезда, вместимость: 19500
    Главный судья: Игорь Низовцев (Нижний Новгород, Россия)
    Ассистент: Алексей Ширяев (Ставрополь, Россия)
    Ассистент: Александр Кудрявцев (Санкт-Петербург, Россия)
    Команды ранее не встречались и проведут первый матч в футбольной истории.

    Комментарий: Александр Шмурнов
    Язык Комментария: Русский
    Релиз: Jora879
    Качество: SATRip
    Формат: MPEG-4
    Видео Кодек: H264
    Аудио Кодек: AAC
    Видео: 1080p, 50 fps, 20 Мбит/сек
    Аудио: 256 Kbps, 48 KHz, 2 channels

> 1-2 <
General
Complete name : 1 тайм.mp4
Format : MPEG-4
Format profile : Base Media
Codec ID : isom
File size : 6.67 GiB
Duration : 46mn 49s
Overall bit rate mode : Variable
Overall bit rate : 20.4 Mbps
Encoded date : UTC 1970-01-01 00:00:00
Tagged date : UTC 1970-01-01 00:00:00
Writing application : Lavf52.93.0

Video
ID : 1
Format : AVC
Format/Info : Advanced Video Codec
Format profile : Main@L4.2
Format settings, CABAC : Yes
Format settings, ReFrames : 2 frames
Format settings, GOP : M=2, N=25
Codec ID : avc1
Codec ID/Info : Advanced Video Coding
Duration : 46mn 48s
Bit rate mode : Constant
Bit rate : 20.0 Mbps
Width : 1 920 pixels
Height : 1 080 pixels
Display aspect ratio : 16:9
Frame rate mode : Variable
Frame rate : 50.000 fps
Minimum frame rate : 14.286 fps
Maximum frame rate : 100.000 fps
Color space : YUV
Chroma subsampling : 4:2:0
Bit depth : 8 bits
Scan type : Progressive
Bits/(Pixel*Frame) : 0.193
Stream size : 6.54 GiB (98%)
Language : English
Encoded date : UTC 1970-01-01 00:00:00
Tagged date : UTC 1970-01-01 00:00:00

Audio
ID : 2
Format : AAC
Format/Info : Advanced Audio Codec
Format profile : LC
Codec ID : 40
Duration : 46mn 49s
Duration_LastFrame : -11ms
Bit rate mode : Variable
Bit rate : 374 Kbps
Channel(s) : 2 channels
Channel positions : Front: L R
Sampling rate : 48.0 KHz
Compression mode : Lossy
Stream size : 125 MiB (2%)
Language : English
Encoded date : UTC 1970-01-01 00:00:00
Tagged date : UTC 1970-01-01 00:00:00
Profile PM
Ответить на тему