Чемпионат России 2014-15 / 5-й тур / Зенит - Амкар / НТВ+ [23.08.2014, 1080p, 50 fps, H.264, RU, SATRip]

Ответить на тему

Автор Сообщение

Jora879


Стаж: 6 лет

Сообщений: 350

Откуда: остров Святой Елены

О.Святой Елены

Торрент-статистика

post 23-Авг-2014 18:51

Quote


Чемпионат России 2014-15 / 5-й тур / Зенит - Амкар / НТВ+

    Год Выпуска: 2014
    Вид Спорта: Футбол
    Продолжительность: 53mn 22s + 49mn 56s
    Описание: Санкт-Петербург, стадион Петровский
    Главный судья: Алексей Николаев

    Комментарий: Геннадий Орлов
    Язык Комментария: Русский
    Релиз: Jora879
    Качество: SATRip
    Формат: MPEG-4
    Видео Кодек: H264
    Аудио Кодек: AAC
    Видео: 1920x1080, 50 fps, 20 Мбит/сек
    Аудио: 256 Kbps, 48 KHz, 2 channels

> 2-0 <
General
Complete name : 1 тайм.mp4
Format : MPEG-4
Format profile : Base Media / Version 2
Codec ID : mp42
File size : 7.61 GiB
Duration : 53mn 22s
Overall bit rate mode : Constant
Overall bit rate : 20.4 Mbps
Encoded date : UTC 2014-08-23 12:58:56
Tagged date : UTC 2014-08-23 12:58:56

Video
ID : 2
Format : AVC
Format/Info : Advanced Video Codec
Format profile : Main@L4.2
Format settings, CABAC : Yes
Format settings, ReFrames : 2 frames
Format settings, GOP : M=2, N=25
Codec ID : avc1
Codec ID/Info : Advanced Video Coding
Duration : 53mn 22s
Source duration : 53mn 22s
Bit rate mode : Constant
Bit rate : 20.0 Mbps
Width : 1 920 pixels
Height : 1 080 pixels
Display aspect ratio : 16:9
Original display aspect ratio : 16:9
Frame rate mode : Variable
Frame rate : 50.000 fps
Minimum frame rate : 14.286 fps
Maximum frame rate : 50.000 fps
Color space : YUV
Chroma subsampling : 4:2:0
Bit depth : 8 bits
Scan type : Progressive
Bits/(Pixel*Frame) : 0.193
Stream size : 7.46 GiB (98%)
Source stream size : 7.46 GiB (98%)
Language : English
Encoded date : UTC 2014-08-23 12:58:56
Tagged date : UTC 2014-08-23 12:58:56

Audio
ID : 1
Format : AAC
Format/Info : Advanced Audio Codec
Format profile : LC
Codec ID : 40
Duration : 53mn 22s
Source duration : 53mn 22s
Bit rate mode : Constant
Bit rate : 402 Kbps
Nominal bit rate : 256 Kbps
Channel(s) : 2 channels
Channel positions : Front: L R
Sampling rate : 48.0 KHz
Compression mode : Lossy
Stream size : 154 MiB (2%)
Source stream size : 154 MiB (2%)
Language : English
Encoded date : UTC 2014-08-23 12:58:56
Tagged date : UTC 2014-08-23 12:58:56
mdhd_Duration : 3202598


Последний раз редактировалось: Jora879 (2014-08-23 19:21), всего редактировалось 1 раз
Profile PM

post 23-Авг-2014 18:52 (спустя 1 минута)


Топик был перенесен из форума Premier League 2014/15 в форум Премьер-Лига 2014/15

dav7dbecks
 
Ответить на тему