Чемпионат России 2014-15 / 5-й тур / Динамо - Урал / НТВ+ [24.08.2014, 720p, H.264, RU, SATRip]

Ответить на тему

Автор Сообщение

Jora879


Стаж: 6 лет

Сообщений: 350

Откуда: остров Святой Елены

О.Святой Елены

Торрент-статистика

post 24-Авг-2014 15:16

Quote


Чемпионат России 2014-15 / 5-й тур / Динамо - Урал / НТВ+

    Год Выпуска: 2014
    Вид Спорта: Футбол
    Продолжительность: 48mn 2s + 48mn 49s
    Описание: Стадион: Арена-Химки
    Главный судья: Кирилл Левников

    Комментарий: Роман Гутцайт
    Язык Комментария: Русский
    Релиз: Jora879
    Качество: SATRip
    Формат: MPEG-4
    Видео Кодек: H264
    Аудио Кодек: AAC
    Видео: 720p, 25 fps, 10 Мбит/сек
    Аудио: 128 Kbps, 48 KHz, 2 channels

> 2-0 <
General
Complete name : 1 тайм.mp4
Format : MPEG-4
Format profile : Base Media / Version 2
Codec ID : mp42
File size : 3.44 GiB
Duration : 48mn 2s
Overall bit rate mode : Variable
Overall bit rate : 10.3 Mbps
Encoded date : UTC 2014-08-24 09:29:55
Tagged date : UTC 2014-08-24 09:29:55

Video
ID : 2
Format : AVC
Format/Info : Advanced Video Codec
Format profile : Main@L3.1
Format settings, CABAC : Yes
Format settings, ReFrames : 2 frames
Format settings, GOP : M=2, N=25
Codec ID : avc1
Codec ID/Info : Advanced Video Coding
Duration : 48mn 2s
Source duration : 48mn 2s
Bit rate mode : Variable
Bit rate : 10 000 Kbps
Width : 1 280 pixels
Height : 720 pixels
Display aspect ratio : 16:9
Frame rate mode : Variable
Frame rate : 25.000 fps
Minimum frame rate : 12.500 fps
Maximum frame rate : 25.000 fps
Color space : YUV
Chroma subsampling : 4:2:0
Bit depth : 8 bits
Scan type : Progressive
Bits/(Pixel*Frame) : 0.434
Stream size : 3.36 GiB (97%)
Source stream size : 3.36 GiB (97%)
Language : English
Encoded date : UTC 2014-08-24 09:29:55
Tagged date : UTC 2014-08-24 09:29:55

Audio
ID : 1
Format : AAC
Format/Info : Advanced Audio Codec
Format profile : LC
Codec ID : 40
Duration : 48mn 2s
Source duration : 48mn 2s
Bit rate mode : Constant
Bit rate : 256 Kbps
Nominal bit rate : 128 Kbps
Channel(s) : 2 channels
Channel positions : Front: L R
Sampling rate : 48.0 KHz
Compression mode : Lossy
Stream size : 88.0 MiB (2%)
Source stream size : 88.0 MiB (2%)
Language : English
Encoded date : UTC 2014-08-24 09:29:55
Tagged date : UTC 2014-08-24 09:29:55
mdhd_Duration : 2882790


Последний раз редактировалось: Jora879 (2014-08-27 20:16), всего редактировалось 2 раз(а)
Profile PM

Heavy_serg


Стаж: 5 лет 9 месяцев

Сообщений: 1993

Откуда: Moscow

Россия

Торрент-статистика

post 24-Авг-2014 15:22 (спустя 5 минут)

Quote


720p, а почему скрины 1920*1080?

_________________
Mes Que Un Club
Profile PM

strangersan


Стаж: 5 лет 9 месяцев

Сообщений: 3900

Откуда: Землянин

Сент-Винсент и Гренадины

Торрент-статистика

post 24-Авг-2014 15:29 (спустя 7 минут)

Quote


Цитата:

Bit rate : 10 000 Kbps
Если в HD средний битрейт 14,0 Mbps то зачем в рипе такой большой? 3,5-4,0 хватает за глаза, по соотношению качество/объем.

_________________
Раздачи долго не храню.
Profile PM

Jora879


Стаж: 6 лет

Сообщений: 350

Откуда: остров Святой Елены

О.Святой Елены

Торрент-статистика

post 24-Авг-2014 15:31 (спустя 1 минута)

Quote


первоначально хотел выкладывать 1080р, потом передумал
Profile PM

Jora879


Стаж: 6 лет

Сообщений: 350

Откуда: остров Святой Елены

О.Святой Елены

Торрент-статистика

post 24-Авг-2014 15:33 (спустя 1 минута)

Quote


ну это вам все известно, а я пока учусь
Profile PM

strangersan


Стаж: 5 лет 9 месяцев

Сообщений: 3900

Откуда: Землянин

Сент-Винсент и Гренадины

Торрент-статистика

post 24-Авг-2014 15:48 (спустя 15 минут)

Quote


Jora879 писал(а):

ну это вам все известно, а я пока учусь
Переговори с dav7dbecks и/или toshap они спецы в создании 720р рипов. Подскажут, расскажут, главное правильно заданные вопросы тобой и желание разбираться/делать. А так 720р приветствуются. Живой поток 1080i есть кому записать, а вот рипов наделать не много.

_________________
Раздачи долго не храню.
Profile PM
Ответить на тему