Чемпионат России 2014-15 / 6-й тур / Краснодар - Динамо / НТВ+ [31.08.2014, 1080p, 50 fps, H.264, RU, SATRip]

Ответить на тему

Автор Сообщение

Jora879


Стаж: 6 лет

Сообщений: 350

Откуда: остров Святой Елены

О.Святой Елены

Торрент-статистика

post 31-Авг-2014 22:17

Quote


Чемпионат России 2014-15 / 6-й тур / Краснодар - Динамо / НТВ+

    Год Выпуска: 2014
    Вид Спорта: Футбол
    Продолжительность: 53 м. + 1 ч. 0 м.
    Описание: Стадион: Кубань (Краснодар, Россия)
    Главный судья: Виталий Мешков (Дмитров, Россия)
    Ассистент: Алексей Воронцов (Ярославль, Россия)
    Ассистент: Павел Кулалаев (Волгоград, Россия)

    Комментарий: Владислав Батурин
    Язык Комментария: Русский
    Релиз: Jora879
    Качество: SATRip
    Формат: MPEG-4
    Видео Кодек: H264
    Аудио Кодек: AAC
    Видео: 1920х1080, 50 fps, 18 Мбит/сек
    Аудио: 256 Kbps, 48 KHz, 2 channels

> 0-2 <
Общее
Полное имя : 1 тайм.mp4
Формат : MPEG-4
Профиль формата : Base Media / Version 2
Идентификатор кодека : mp42
Размер файла : 6,95 Гбайт
Продолжительность : 53 м.
Режим общего битрейта : Постоянный
Общий поток : 18,4 Мбит/сек
Дата кодирования : UTC 2014-08-31 16:14:28
Дата пометки : UTC 2014-08-31 16:14:28

Видео
Идентификатор : 2
Формат : AVC
Формат/Информация : Advanced Video Codec
Профиль формата : Main@L4.2
Параметр CABAC формата : Да
Параметр ReFrames формата : 2 кадра
Параметр GOP формата : M=2, N=25
Идентификатор кодека : avc1
Идентификатор кодека/Информация : Advanced Video Coding
Продолжительность : 53 м.
Продолжительность оригинала : 53 м.
Вид битрейта : Постоянный
Битрейт : 18,0 Мбит/сек
Ширина : 1920 пикселей
Высота : 1080 пикселей
Соотношение сторон : 16:9
Соотношение сторон в оригинале : 16:9
Режим частоты кадров : Переменный
Частота кадров : 50,000 кадров/сек
Минимальная частота кадров : 20,000 кадров/сек
Максимальная частота кадров : 50,000 кадров/сек
Цветовое пространство : YUV
Субдискретизация насыщенности : 4:2:0
Битовая глубина : 8 бит
Тип развёртки : Прогрессивная
Бит/(Пиксели*Кадры) : 0.174
Размер потока : 6,79 Гбайт (98%)
Размер потока оригинала : 6,79 Гбайт (98%)
Язык : English
Дата кодирования : UTC 2014-08-31 16:14:28
Дата пометки : UTC 2014-08-31 16:14:28

Аудио
Идентификатор : 1
Формат : AAC
Формат/Информация : Advanced Audio Codec
Профиль формата : LC
Идентификатор кодека : 40
Продолжительность : 53 м.
Продолжительность оригинала : 53 м.
Вид битрейта : Постоянный
Битрейт : 411 Кбит/сек
Номинальный битрейт : 256 Кбит/сек
Каналы : 2 канала
Расположение каналов : Front: L R
Частота : 48,0 КГц
Метод сжатия : С потерями
Размер потока : 159 Мбайт (2%)
Размер потока оригинала : 159 Мбайт (2%)
Язык : English
Дата кодирования : UTC 2014-08-31 16:14:28
Дата пометки : UTC 2014-08-31 16:14:28
mdhd_Duration : 3239312
Profile PM

MaksFearless


Стаж: 5 лет 7 месяцев

Сообщений: 729

Россия

Торрент-статистика

post 31-Авг-2014 23:06 (спустя 48 минут)

Quote


Jora879 спасибо

_________________
Оставлять благодарности - это самое малое, что мы можем сделать для релизеров. Спасибо им за все труды.
Profile PM
Ответить на тему