Чемпионат России 2014-15 / 8-й тур / Торпедо – Динамо / НТВ+ [22.09.2014, 540p, H.264, RU, SATRip]

Ответить на тему

Автор Сообщение

Jora879


Стаж: 6 лет

Сообщений: 350

Откуда: остров Святой Елены

О.Святой Елены

Торрент-статистика

post 22-Сен-2014 21:50

Quote


Чемпионат России 2014-15 / 8-й тур / Торпедо – Динамо / НТВ+

    Год Выпуска: 2014
    Вид Спорта: Футбол
    Описание: Стадион: Сатурн (Раменское, Россия)
    Главный судья: Сергей Иванов (Ростов-на-Дону, Россия)
    Комментарий: Юрий Розанов
    Язык Комментария: Русский
    Продолжительность: 1 ч. 6 м. + 1 ч. 2 м.
    Релиз: Jora879
    Качество: SATRip; Формат: MPEG-4; Видео Кодек: H264; Аудио Кодек: AAC
    Видео: 960x540 (16/9), 25 fps, 2 Мбит/сек; Аудио: 128 Kbps, 48 KHz, 2 channels

> 1-3 <
Общее
Полное имя :1 тайм.mp4
Формат : MPEG-4
Профиль формата : Base Media / Version 2
Идентификатор кодека : mp42
Размер файла : 1,28 Гбайт
Продолжительность : 1 ч. 6 м.
Режим общего битрейта : Постоянный
Общий поток : 2762 Кбит/сек
Дата кодирования : UTC 2014-09-22 15:43:57
Дата пометки : UTC 2014-09-22 15:43:57

Видео
Идентификатор : 2
Формат : AVC
Формат/Информация : Advanced Video Codec
Профиль формата : Main@L3.1
Параметр CABAC формата : Да
Параметр ReFrames формата : 2 кадра
Параметр GOP формата : M=2, N=25
Идентификатор кодека : avc1
Идентификатор кодека/Информация : Advanced Video Coding
Продолжительность : 1 ч. 6 м.
Вид битрейта : Постоянный
Битрейт : 2500 Кбит/сек
Ширина : 960 пикселей
Высота : 544 пикселя
Высота оригинала : 540 пикселей
Соотношение сторон : 16:9
Соотношение сторон в оригинале : 16:9
Режим частоты кадров : Переменный
Частота кадров : 25,000 кадров/сек
Минимальная частота кадров : 10,000 кадров/сек
Максимальная частота кадров : 25,000 кадров/сек
Цветовое пространство : YUV
Субдискретизация насыщенности : 4:2:0
Битовая глубина : 8 бит
Тип развёртки : Прогрессивная
Бит/(Пиксели*Кадры) : 0.191
Размер потока : 1,16 Гбайт (91%)
Язык : English
Дата кодирования : UTC 2014-09-22 15:43:57
Дата пометки : UTC 2014-09-22 15:43:57

Аудио
Идентификатор : 1
Формат : AAC
Формат/Информация : Advanced Audio Codec
Профиль формата : LC
Идентификатор кодека : 40
Продолжительность : 1 ч. 6 м.
Вид битрейта : Постоянный
Битрейт : 256 Кбит/сек
Номинальный битрейт : 128 Кбит/сек
Каналы : 2 канала
Расположение каналов : Front: L R
Частота : 48,0 КГц
Метод сжатия : С потерями
Размер потока : 121 Мбайт (9%)
Язык : English
Дата кодирования : UTC 2014-09-22 15:43:57
Дата пометки : UTC 2014-09-22 15:43:57
mdhd_Duration : 3979279
Profile PM

R1CARDO


Стаж: 6 лет

Сообщений: 3768

Откуда: Миланская Народная Республика

Италия

Торрент-статистика

post 22-Сен-2014 21:56 (спустя 6 минут)

Quote


Нормальный рип будет через 20 мин , 720

_________________
Продажа монет 16 на PC - https://vk.com/coinspc
Profile PM
Ответить на тему