Чемпионат России 2014-15 / 10-й тур / ЦСКА – Кубань / НТВ+ [18.10.2014, 1080p, H.264, RU, SAT]

Ответить на тему

Автор Сообщение

Jora879


Стаж: 6 лет

Сообщений: 350

Откуда: остров Святой Елены

О.Святой Елены

Торрент-статистика

post 18-Окт-2014 16:34

Quote


Чемпионат России 2014-15 / 10-й тур / ЦСКА – Кубань / НТВ+

    Год Выпуска: 2014
    Вид Спорта: Футбол
    Описание: Стадион: Арена Химки (Химки, Россия)
    Главный судья: Игорь Низовцев (Нижний Новгород, Россия)
    Комментарий: Юрий Розанов
    Язык Комментария: Русский
    Продолжительность: 55 м. + 1 ч. 4 м.
    Релиз: Jora879
    Качество: SAT; Формат: MPEG-4; Видео Кодек: H264; Аудио Кодек: AAC
    Видео: 1920х1080 (16/9), 25 fps, 14 Мбит/сек; Аудио: 192 Kbps, 48 KHz, 2 channels

> 6-0 <
Общее
Формат : MPEG-4
Профиль формата : Base Media / Version 2
Идентификатор кодека : mp42
Размер файла : 1,22 Гбайт
Режим общего битрейта : Постоянный
Общий поток : 14,4 Мбит/сек

Видео
Идентификатор : 2
Формат : AVC
Формат/Информация : Advanced Video Codec
Профиль формата : Main@L4.0
Параметр CABAC формата : Да
Параметр ReFrames формата : 2 кадра
Параметр GOP формата : M=2, N=25
Идентификатор кодека : avc1
Идентификатор кодека/Информация : Advanced Video Coding
Вид битрейта : Постоянный
Битрейт : 14,0 Мбит/сек
Ширина : 1920 пикселей
Высота : 1080 пикселей
Соотношение сторон : 16:9
Соотношение сторон в оригинале : 16:9
Режим частоты кадров : Постоянный
Частота кадров : 25,000 кадров/сек
Цветовое пространство : YUV
Субдискретизация насыщенности : 4:2:0
Битовая глубина : 8 бит
Тип развёртки : Прогрессивная
Бит/(Пиксели*Кадры) : 0.270
Размер потока : 1,14 Гбайт (93%)
Размер потока оригинала : 1,19 Гбайт (97%)
Язык : English

Аудио
Идентификатор : 1
Формат : AAC
Формат/Информация : Advanced Audio Codec
Профиль формата : LC
Идентификатор кодека : 40
Вид битрейта : Постоянный
Битрейт : 384 Кбит/сек
Номинальный битрейт : 192 Кбит/сек
Каналы : 2 канала
Расположение каналов : Front: L R
Частота : 48,0 КГц
Метод сжатия : С потерями
Размер потока : 33,5 Мбайт (3%)
Размер потока оригинала : 33,5 Мбайт (3%)
Язык : English
mdhd_Duration : 731988


Последний раз редактировалось: Jora879 (2014-10-18 18:41), всего редактировалось 4 раз(а)
Profile PM

rendon


Стаж: 4 года 1 месяц

Сообщений: 208

Торрент-статистика

post 18-Окт-2014 16:40 (спустя 6 минут)

Quote


Всех армейцев с победой! Роман конечно отыграл фантастический матч,ненамного хуже был и Миланов.Вобщем спасибо ребятам за этот матч!!!
Profile PM

R1CARDO


Стаж: 6 лет

Сообщений: 3768

Откуда: Миланская Народная Республика

Италия

Торрент-статистика

post 18-Окт-2014 16:50 (спустя 9 минут)

Quote


Jora879
это точно хд у тебя ?

http://screenshotcomparison.com/comparison/96422

_________________
Продажа монет 16 на PC - https://vk.com/coinspc
Profile PM

MaksFearless


Стаж: 5 лет 7 месяцев

Сообщений: 729

Россия

Торрент-статистика

post 18-Окт-2014 16:58 (спустя 8 минут)

Quote


Jora879, поправь в шапке - не 1920р, а 1080p. За релиз спасибо. 9

добавлено спустя 8 минут 1 секунда:

R1CARDO на скрине не заметно большой разницы между скриншотами. Сомневаюсь, что Jora879 мухлюет.


Последний раз редактировалось: MaksFearless (2014-10-18 16:58), всего редактировалось 1 раз
Profile PM

Jora879


Стаж: 6 лет

Сообщений: 350

Откуда: остров Святой Елены

О.Святой Елены

Торрент-статистика

post 18-Окт-2014 16:59 (спустя 1 минута)

Quote


R1CARDO писал(а):

Jora879
это точно хд у тебя ?

http://screenshotcomparison.com/comparison/96422
скриншот не 2 мегабайта, а 170 КБ
Profile PM

R1CARDO


Стаж: 6 лет

Сообщений: 3768

Откуда: Миланская Народная Республика

Италия

Торрент-статистика

post 18-Окт-2014 17:02 (спустя 3 минуты)

Quote


Jora879
а что мешает сделать нормальный размер ?

_________________
Продажа монет 16 на PC - https://vk.com/coinspc
Profile PM

Jora879


Стаж: 6 лет

Сообщений: 350

Откуда: остров Святой Елены

О.Святой Елены

Торрент-статистика

post 18-Окт-2014 17:06 (спустя 3 минуты)

Quote


еще не научился
Profile PM

R1CARDO


Стаж: 6 лет

Сообщений: 3768

Откуда: Миланская Народная Республика

Италия

Торрент-статистика

post 18-Окт-2014 17:17 (спустя 10 минут)

Quote


Jora879
VLC media player
Видео , сделать снимок , тренируйтесь )

_________________
Продажа монет 16 на PC - https://vk.com/coinspc
Profile PM

Jora879


Стаж: 6 лет

Сообщений: 350

Откуда: остров Святой Елены

О.Святой Елены

Торрент-статистика

post 18-Окт-2014 17:26 (спустя 9 минут)

Quote


Скриншоты сделаны VLC media player в jpg bi
Profile PM

Jora879


Стаж: 6 лет

Сообщений: 350

Откуда: остров Святой Елены

О.Святой Елены

Торрент-статистика

post 18-Окт-2014 18:43 (спустя 1 час 17 минут)

Quote


по просьбе трудящихся заменил скриншоты (расширение png)
Profile PM
Ответить на тему