Чемпионат России 2014-15 / 10-й тур / Краснодар – Зенит / НТВ+ [18.10.2014, 1080p, H.264, RU, SAT]

Ответить на тему

Автор Сообщение

Jora879


Стаж: 6 лет

Сообщений: 350

Откуда: остров Святой Елены

О.Святой Елены

Торрент-статистика

post 18-Окт-2014 19:12

Quote


Чемпионат России 2014-15 / 10-й тур / Краснодар – Зенит / НТВ+

    Год Выпуска: 2014
    Вид Спорта: Футбол
    Описание: Стадион: Кубань (Краснодар, Россия)
    Главный судья: Тимур Арсланбеков (Москва, Россия)
    Комментарий: Геннадий Орлов
    Язык Комментария: Русский
    Продолжительность: 54 м. + 1 ч. 3 м.
    Релиз: Jora879
    Качество: SAT; Формат: MPEG-4; Видео Кодек: H264; Аудио Кодек: AAC
    Видео: 1920х1080 (16/9), 25 fps, 14 Мбит/сек; Аудио: 192 Kbps, 48 KHz, 2 channels

> 2-2 <
Общее
Полное имя : 1 тайм.mp4
Формат : MPEG-4
Профиль формата : Base Media / Version 2
Идентификатор кодека : mp42
Размер файла : 5,50 Гбайт
Продолжительность : 54 м.
Режим общего битрейта : Постоянный
Общий поток : 14,4 Мбит/сек
Дата кодирования : UTC 2014-10-18 12:58:06
Дата пометки : UTC 2014-10-18 12:58:06

Видео
Идентификатор : 2
Формат : AVC
Формат/Информация : Advanced Video Codec
Профиль формата : Main@L4.0
Параметр CABAC формата : Да
Параметр ReFrames формата : 2 кадра
Параметр GOP формата : M=2, N=25
Идентификатор кодека : avc1
Идентификатор кодека/Информация : Advanced Video Coding
Продолжительность : 54 м.
Продолжительность оригинала : 54 м.
Вид битрейта : Постоянный
Битрейт : 14,0 Мбит/сек
Ширина : 1920 пикселей
Высота : 1080 пикселей
Соотношение сторон : 16:9
Соотношение сторон в оригинале : 16:9
Режим частоты кадров : Переменный
Частота кадров : 25,000 кадров/сек
Минимальная частота кадров : 10,000 кадров/сек
Максимальная частота кадров : 25,000 кадров/сек
Цветовое пространство : YUV
Субдискретизация насыщенности : 4:2:0
Битовая глубина : 8 бит
Тип развёртки : Прогрессивная
Бит/(Пиксели*Кадры) : 0.270
Размер потока : 5,36 Гбайт (97%)
Размер потока оригинала : 5,36 Гбайт (97%)
Язык : English
Дата кодирования : UTC 2014-10-18 12:58:06
Дата пометки : UTC 2014-10-18 12:58:06

Аудио
Идентификатор : 1
Формат : AAC
Формат/Информация : Advanced Audio Codec
Профиль формата : LC
Идентификатор кодека : 40
Продолжительность : 54 м.
Продолжительность оригинала : 54 м.
Вид битрейта : Постоянный
Битрейт : 353 Кбит/сек
Номинальный битрейт : 192 Кбит/сек
Каналы : 2 канала
Расположение каналов : Front: L R
Частота : 48,0 КГц
Метод сжатия : С потерями
Размер потока : 140 Мбайт (2%)
Размер потока оригинала : 140 Мбайт (2%)
Язык : English
Дата кодирования : UTC 2014-10-18 12:58:06
Дата пометки : UTC 2014-10-18 12:58:06
mdhd_Duration : 3289126
Profile PM

MaksFearless


Стаж: 5 лет 7 месяцев

Сообщений: 729

Россия

Торрент-статистика

post 18-Окт-2014 22:23 (спустя 3 часа)

Quote


Jora879 спасибо большое за релиз и за 1080p. Продолжайте в тоже духе. Я в вас очень верю! 1
Profile PM
Ответить на тему