Чемпионат России 2014-15 / 12-й тур / ЦСКА – Зенит / НТВ+ [01.11.2014, 540p, H.264, RU, SATRip]

Ответить на тему

Автор Сообщение

Jora879


Стаж: 6 лет

Сообщений: 350

Откуда: остров Святой Елены

О.Святой Елены

Торрент-статистика

post 01-Ноя-2014 17:43

Quote


Чемпионат России 2014-15 / 12-й тур / ЦСКА – Зенит / НТВ+

    Год Выпуска: 2014
    Вид Спорта: Футбол
    Описание: Стадион: Арена Химки (Химки, Россия)
    Главный судья: Александр Егоров (Саранск, Россия)
    Комментарий: Геннадий Орлов
    Язык Комментария: Русский
    Продолжительность: 13 м. + 55 м. + 1 ч. 9 м.
    Релиз: Jora879
    Качество: SATRip; Формат: MPEG-4; Видео Кодек: H264; Аудио Кодек: AAC
    Видео: 960x540 (16/9), 25 fps, 1,5 Мбит/сек; Аудио: 128 Kbps, 48 KHz, 2 channels

> 0-1 <
Общее
Полное имя : 1 тайм.mp4
Формат : MPEG-4
Профиль формата : Base Media / Version 2
Идентификатор кодека : mp42
Размер файла : 701 Мбайт
Продолжительность : 55 м.
Режим общего битрейта : Переменный
Общий поток : 1761 Кбит/сек
Дата кодирования : UTC 2014-11-01 12:56:28
Дата пометки : UTC 2014-11-01 12:56:28

Видео
Идентификатор : 2
Формат : AVC
Формат/Информация : Advanced Video Codec
Профиль формата : Main@L3.1
Параметр CABAC формата : Да
Параметр ReFrames формата : 2 кадра
Параметр GOP формата : M=2, N=25
Идентификатор кодека : avc1
Идентификатор кодека/Информация : Advanced Video Coding
Продолжительность : 55 м.
Продолжительность оригинала : 55 м.
Вид битрейта : Переменный
Битрейт : 1501 Кбит/сек
Максимальный битрейт : 2500 Кбит/сек
Ширина : 960 пикселей
Высота : 544 пикселя
Высота оригинала : 540 пикселей
Соотношение сторон : 16:9
Соотношение сторон в оригинале : 16:9
Режим частоты кадров : Переменный
Частота кадров : 25,000 кадров/сек
Минимальная частота кадров : 12,500 кадров/сек
Максимальная частота кадров : 25,000 кадров/сек
Цветовое пространство : YUV
Субдискретизация насыщенности : 4:2:0
Битовая глубина : 8 бит
Тип развёртки : Прогрессивная
Бит/(Пиксели*Кадры) : 0.115
Размер потока : 598 Мбайт (85%)
Размер потока оригинала : 598 Мбайт (85%)
Язык : English
Дата кодирования : UTC 2014-11-01 12:56:28
Дата пометки : UTC 2014-11-01 12:56:28

Аудио
Идентификатор : 1
Формат : AAC
Формат/Информация : Advanced Audio Codec
Профиль формата : LC
Идентификатор кодека : 40
Продолжительность : 55 м.
Продолжительность оригинала : 55 м.
Вид битрейта : Постоянный
Битрейт : 256 Кбит/сек
Номинальный битрейт : 128 Кбит/сек
Каналы : 2 канала
Расположение каналов : Front: L R
Частота : 48,0 КГц
Метод сжатия : С потерями
Размер потока : 102 Мбайт (15%)
Размер потока оригинала : 102 Мбайт (15%)
Язык : English
Дата кодирования : UTC 2014-11-01 12:56:28
Дата пометки : UTC 2014-11-01 12:56:28
mdhd_Duration : 3340582


Последний раз редактировалось: Jora879 (2014-11-01 19:02), всего редактировалось 2 раз(а)
Profile PM

Tayk


Стаж: 4 года 1 месяц

Сообщений: 6

Торрент-статистика

post 01-Ноя-2014 17:53 (спустя 9 минут)

Quote


в идеале еще что бы кто нибудь раздавал
Profile PM

rusl0004


Стаж: 2 года 5 месяцев

Сообщений: 18

Россия

Торрент-статистика

post 01-Ноя-2014 18:08 (спустя 14 минут)

Quote


Раздаче 20 минут, а уже все скачали. Я присоединился 2мин 50 сек назад и тоже скачал.

Спасибо за 1 тайм, ждем второго также оперативно. ab
Profile PM
Ответить на тему